<?xml version="1.0" standalone="no"?>
<!DOCTYPE svg PUBLIC "-//W3C//DTD SVG 1.1//EN" "http://www.w3.org/Graphics/SVG/1.1/DTD/svg11.dtd" >
<svg xmlns="http://www.w3.org/2000/svg">
<defs>
  <font id="InstructureIcons-Solid" horiz-adv-x="1920">
    <font-face font-family="InstructureIcons-Solid"
      units-per-em="1920" ascent="1920"
      descent="0" />
    <missing-glyph horiz-adv-x="0" />
    <glyph glyph-name="Arc"
      unicode="&#xEA01;"
      horiz-adv-x="1920" d="M1142.27704 676.8615500000001L777.213784 676.8615500000001L777.213784 329.6835000000001C843.331544 306.5408299999999 890.752197 243.5989300000001 890.752197 169.5813499999999C890.752197 75.92416 814.828042 0 721.17085 0C627.513658 0 551.589502 75.92416 551.589502 169.5813499999999C551.589502 243.5989300000001 599.010155 306.5408299999999 665.127916 329.6835000000001L665.127916 676.8615500000001L541.655579 676.8615500000001L541.689247 478.7545299999999C541.689247 401.6600900000001 479.191853 339.1627000000001 402.09741 339.1627000000001L342.960786 339.21138C320.046924 272.6771900000001 256.896612 224.8743400000001 182.581348 224.8743400000001C88.9241555 224.8743400000001 13 300.7985000000001 13 394.45569C13 488.1128799999999 88.9241555 564.0370399999999 182.581348 564.0370399999999C256.288255 564.0370399999999 319.012258 517.0136299999999 342.389983 451.3301899999999L403.85272 451.3301899999999C418.054328 451.3301899999999 429.567006 462.8428699999999 429.567006 477.04448L429.567006 676.8615500000001L183.114532 676.8615500000001C150.653714 676.8615500000001 124.339021 703.17624 124.339021 735.63706L124.339021 1861.2244898C124.339021 1893.6853077 150.653714 1920 183.114532 1920L1735.1347 1920C1767.59552 1920 1793.91021 1893.6853077 1793.91021 1861.2244898L1793.91021 735.63706C1793.91021 703.17624 1767.59552 676.8615500000001 1735.1347 676.8615500000001L1489.85675 676.8615500000001L1489.85675 477.04448C1489.85675 462.8428699999999 1501.36943 451.3301899999999 1515.57103 451.3301899999999L1577.03377 451.3301899999999C1600.4115 517.0136299999999 1663.1355 564.0370399999999 1736.84241 564.0370399999999C1830.4996 564.0370399999999 1906.42375 488.1128799999999 1906.42375 394.45569C1906.42375 300.7985000000001 1830.4996 224.8743400000001 1736.84241 224.8743400000001C1662.52714 224.8743400000001 1599.37683 272.6771900000001 1576.46297 339.21138L1517.36272 339.1627000000001C1440.2319 339.1627000000001 1377.73451 401.6600900000001 1377.73451 478.7545299999999L1377.76817 676.8615500000001L1254.36291 676.8615500000001L1254.36291 329.6835000000001C1320.48067 306.5408299999999 1367.90132 243.5989300000001 1367.90132 169.5813499999999C1367.90132 75.92416 1291.97717 0 1198.31997 0C1104.66278 0 1028.73863 75.92416 1028.73863 169.5813499999999C1028.73863 243.5989300000001 1076.15928 306.5408299999999 1142.27704 329.6835000000001L1142.27704 676.8615500000001zM1199.67111 113.95245C1230.3941 113.95245 1255.30001 138.85836 1255.30001 169.5813499999999C1255.30001 200.3043399999999 1230.3941 225.2102400000001 1199.67111 225.2102400000001C1168.94812 225.2102400000001 1144.04222 200.3043399999999 1144.04222 169.5813499999999C1144.04222 138.85836 1168.94812 113.95245 1199.67111 113.95245zM722.52199 113.95245C753.244979 113.95245 778.150884 138.85836 778.150884 169.5813499999999C778.150884 200.3043399999999 753.244979 225.2102400000001 722.52199 225.2102400000001C691.799 225.2102400000001 666.893096 200.3043399999999 666.893096 169.5813499999999C666.893096 138.85836 691.799 113.95245 722.52199 113.95245zM1738.19355 338.8267900000001C1768.91654 338.8267900000001 1793.82244 363.7327 1793.82244 394.45569C1793.82244 425.17868 1768.91654 450.08458 1738.19355 450.08458C1707.47056 450.08458 1682.56465 425.17868 1682.56465 394.45569C1682.56465 363.7327 1707.47056 338.8267900000001 1738.19355 338.8267900000001zM181.230208 338.8267900000001C211.953198 338.8267900000001 236.859102 363.7327 236.859102 394.45569C236.859102 425.17868 211.953198 450.08458 181.230208 450.08458C150.507218 450.08458 125.601314 425.17868 125.601314 394.45569C125.601314 363.7327 150.507218 338.8267900000001 181.230208 338.8267900000001zM901.046855 1571.335104L1121.08185 1439.5388699999999C1133.59009 1430.371548 1141 1415.662382 1141 1400C1141 1384.337618 1133.59009 1369.628452 1121.08185 1360.4611300000001L901.046855 1228.664896C886.19456 1219.958976 867.897012 1219.953577 853.039735 1228.650731C838.182458 1237.3478850000001 829.019897 1253.427886 829 1270.8396910000001L829 1529.1603089999999C829.019897 1546.572114 838.182458 1562.6521149999999 853.039735 1571.349269C867.897012 1580.046423 886.19456 1580.041024 901.046855 1571.335104zM1687.20211 986.666667L1687.20211 1783.945578C1687.20211 1800.175987 1674.04476 1813.333333 1657.81435 1813.333333L260.434877 1813.333333C244.204468 1813.333333 231.047122 1800.175987 231.047122 1783.945578L231.047122 986.666667L1687.20211 986.666667zM1687.20211 880L231.047122 880L231.047122 812.90146C231.047122 796.6710499999999 244.204468 783.51371 260.434877 783.51371L1657.81435 783.51371C1674.04476 783.51371 1687.20211 796.6710499999999 1687.20211 812.90146L1687.20211 880z" />
    <glyph glyph-name="a11y"
      unicode="&#xEA02;"
      horiz-adv-x="1920" d="M960 1918C1489.35529 1918 1920 1487.355294 1920 958C1920 428.6447100000001 1489.35529 -2 960 -2C430.644706 -2 0 428.6447100000001 0 958C0 1487.355294 430.644706 1918 960 1918zM1396.704 1284.768L482.144 1284.768C451.104 1284.768 426.677333 1260.3413329999998 426.677333 1229.3013329999999C426.677333 1198.154667 451.104 1173.728 482.144 1173.728L757.450667 1173.728L757.450667 285.9413300000001C757.450667 254.79467 781.770667 230.368 812.917333 230.368C843.957333 230.368 868.384 254.79467 868.384 285.9413300000001L868.384 660.9813300000001L1014.83733 660.9813300000001L1014.83733 285.9413300000001C1014.83733 254.79467 1039.264 230.368 1070.304 230.368C1101.45067 230.368 1125.87733 254.79467 1125.87733 285.9413300000001L1125.87733 1175.9679999999998L1401.184 1175.9679999999998C1432.224 1175.9679999999998 1456.65067 1200.394667 1456.65067 1231.434667C1449.93067 1260.3413329999998 1425.61067 1284.768 1396.704 1284.768zM939.413333 1599.9786669999999C865.92 1599.9786669999999 806.186667 1540.3519999999999 806.186667 1466.752C806.186667 1393.258667 865.92 1333.632 939.413333 1333.632C1013.01333 1333.632 1072.64 1393.258667 1072.64 1466.752C1072.64 1540.3519999999999 1013.01333 1599.9786669999999 939.413333 1599.9786669999999z" />
    <glyph glyph-name="add-folder"
      unicode="&#xEA03;"
      horiz-adv-x="1920" d="M764.385882 1807.058824L990.268235 1468.235294L225.882353 1468.235294L225.882353 1355.294118L1920 1355.294118L1920 282.35294C1920 188.9505899999999 1843.99059 112.94118 1750.58824 112.94118L1750.58824 112.94118L169.411765 112.94118C76.0094118 112.94118 0 188.9505899999999 0 282.35294L0 282.35294L0 1807.058824L764.385882 1807.058824zM1040 1061.154274L880 1061.154274L880 821.15427L640 821.15427L640 661.15427L880 661.15427L880 421.15427L1040 421.15427L1040 661.15427L1280 661.15427L1280 821.15427L1040 821.15427L1040 1061.154274z" />
    <glyph glyph-name="add-media"
      unicode="&#xEA04;"
      horiz-adv-x="1920" d="M1920 1483.636364L1570.90909 1483.636364L1570.90909 1832.7272727L1396.36364 1832.7272727L1396.36364 1483.636364L1047.27273 1483.636364L1047.27273 1309.090909L1396.36364 1309.090909L1396.36364 960L1570.90909 960L1570.90909 1309.090909L1920 1309.090909L1920 1483.636364zM698.181818 1483.636364L698.181818 1309.090909L174.545455 1309.090909L174.545455 261.81818L1396.36364 261.81818L1396.36364 610.9090900000001L1570.90909 609.1199999999999L1570.90909 261.81818C1570.90909 165.4690900000001 1492.71273 87.2727299999999 1396.36364 87.2727299999999L174.545455 87.2727299999999C78.1090909 87.2727299999999 0 165.4690900000001 0 261.81818L0 1309.090909C0 1405.5272730000002 78.1090909 1483.636364 174.545455 1483.636364L698.181818 1483.636364zM610.900364 1134.5541819999999L610.900364 436.3723600000001L1134.53673 785.46327L610.900364 1134.5541819999999z" />
    <glyph glyph-name="add"
      unicode="&#xEA05;"
      horiz-adv-x="1920" d="M866.331875 1707L866.331875 1053.6681250000001L213 1053.6681250000001L213 867.00187L866.331875 867.00187L866.331875 213.6700000000001L1052.99813 213.6700000000001L1052.99813 867.00187L1706.33 867.00187L1706.33 1053.6681250000001L1052.99813 1053.6681250000001L1052.99813 1707z" />
    <glyph glyph-name="address-book"
      unicode="&#xEA06;"
      horiz-adv-x="1920" d="M1801.44118 1920L1801.44118 0L219.029412 0L219.029412 439.21569L162.514706 439.21569C131.318588 439.21569 106 464.51451 106 495.6862699999999C106 526.8580400000001 131.318588 552.15686 162.514706 552.15686L162.514706 552.15686L219.029412 552.15686L219.029412 890.9803899999999L162.514706 890.9803899999999C131.318588 890.9803899999999 106 916.27922 106 947.45098C106 978.622745 131.318588 1003.921569 162.514706 1003.921569L162.514706 1003.921569L219.029412 1003.921569L219.029412 1342.7450979999999L162.514706 1342.7450979999999C131.318588 1342.7450979999999 106 1368.0439219999998 106 1399.215686C106 1430.387451 131.318588 1455.686275 162.514706 1455.686275L162.514706 1455.686275L219.029412 1455.686275L219.029412 1920L1801.44118 1920zM1029 1421C916.21825 1421 792.520368 1329.28175 792.520368 1216.5L792.520368 1114.25C792.520368 1068.6464999999998 808.647592 1027.03075 833.903342 992.9815C801.744473 983.600173 783.134393 972.862868 742.4955 953.513C669.163241 918.59646 620 847.7864999999999 620 765.8842500000001L620 625.904L643.82425 610.8732500000001C743.82475 547.7850000000001 857.93575 509.748 973.9895 500.8522499999999C992.19 499.5229999999999 1009.87925 498.8072500000001 1027.364 498.8072500000001C1206.19925 498.8072500000001 1344.339 567.2125000000001 1413.97125 610.66875L1438 625.6995L1438 766.49775C1438 848.29775 1389.1245 922.2245 1313.56175 954.9445C1274.50225 971.81575 1249.07474 983.37 1208.27699 992.9815C1233.02149 1026.82625 1255.44392 1069.26 1255.44392 1114.25L1255.44392 1216.5C1255.44392 1329.28175 1141.78175 1421 1029 1421zM722.303255 765.50081C722.303255 806.50306 746.127505 843.31306 783.142005 859.26406C859.420505 892.29081 938.357505 908.95756 1018.41926 910.38906C1021.99801 910.28681 1034.16576 910.08231 1036.82426 910.18456C1050.01451 909.98006 1063.10251 910.49131 1076.29276 909.46881C1143.77776 904.35631 1210.03576 887.8940600000001 1273.12401 860.6955599999999C1311.16101 844.2333100000001 1335.80326 807.1165599999999 1335.80326 766.1143099999999L1335.80326 682.7805599999999C1263.71701 642.3918100000001 1137.84726 590.6533099999999 981.813755 602.4120600000001C891.424755 609.3650600000001 802.262755 636.9725599999999 722.303255 682.5760600000001L722.303255 765.50081zM888.138287 1216.446745C888.138287 1272.7864949999998 972.717766 1318.696745 1029.15977 1318.696745C1085.60177 1318.696745 1160.21148 1272.7864949999998 1160.21148 1216.446745L1160.21148 1114.196745C1160.21148 1058.8794950000001 1087.03327 1014.196245 1032.12502 1012.560245C1029.97777 1012.560245 1027.83052 1012.662495 1025.68327 1012.662495C970.979516 1014.605245 888.138287 1059.083995 888.138287 1114.196745L888.138287 1216.446745z" />
    <glyph glyph-name="admin-tools"
      unicode="&#xEA07;"
      horiz-adv-x="1920" d="M1556.61126 0C1502.52719 0 1448.44311 20.69209 1407.2779 61.8572899999999L740.094984 729.0402099999999C541.93268 687.3276000000001 333.369592 748.3090299999999 189.619809 892.05882C14.4487116 1067.2299130000001 -35.2560874 1337.212368 65.7957397 1563.730494L98.2023928 1636.426499L488.396013 1246.2328790000001C512.810485 1221.927889 552.66191 1221.927889 577.076381 1246.2328790000001L687.762619 1356.919116C699.586668 1368.8526470000002 706.046102 1384.508564 706.046102 1401.259301C706.046102 1418.010037 699.586668 1433.775436 687.762619 1445.599485L297.568998 1835.7931051L370.265004 1868.1997582C596.892612 1969.2515852 866.875066 1919.546786239 1041.93668 1744.48517C1196.9631 1589.349267 1254.76957 1359.327719 1193.78813 1149.669811L1844.43927 499.01866C1884.40018 459.16724 1906.40605 406.0685000000001 1906.40605 349.57582C1906.40605 293.1926200000001 1884.40018 240.0938900000001 1844.43927 200.2424599999999L1706.16359 61.8572899999999C1664.8889 20.69209 1610.80482 0 1556.61126 0L1556.61126 0z" />
    <glyph glyph-name="admin"
      unicode="&#xEA08;"
      horiz-adv-x="1920" d="M983.727059 1914.57882353L1723.04 1566.3811759999999C1742.80471 1557.007059 1755.45412 1537.129412 1755.45412 1515.218824L1755.45412 913.69412C1755.45412 424.09412 1331.24706 193.9200000000001 1021.67529 25.7505900000001L986.776471 6.77647C978.305882 2.25882 969.044706 -0.11294 959.670588 -0.11294C950.409412 -0.11294 941.148235 2.25882 932.677647 6.77647L897.778824 25.7505900000001C588.094118 193.9200000000001 164 424.09412 164 913.69412L164 1515.218824C164 1537.129412 176.649412 1557.007059 196.414118 1566.3811759999999L935.727059 1914.57882353C950.861176 1921.80705882 968.592941 1921.80705882 983.727059 1914.57882353zM757.088 1536.677647C581.012706 1536.677647 437.803294 1393.355294 437.803294 1217.28C437.803294 1041.204706 581.012706 897.99529 757.088 897.99529C759.008 897.99529 760.928 897.99529 762.848 898.10824L762.848 898.10824L821.351529 839.6047100000001L905.040941 839.6047100000001L905.040941 722.8235299999999L1021.82212 722.8235299999999L1021.82212 639.02118L1113.41741 547.53882L1426.82918 547.53882L1426.82918 860.9505899999999L1076.25976 1211.6329409999998C1076.37271 1213.44 1076.37271 1215.3600000000001 1076.37271 1217.28C1076.37271 1393.355294 933.163294 1536.677647 757.088 1536.677647zM757.088 1423.736471C870.819765 1423.736471 963.431529 1331.011765 962.415059 1207.115294L962.415059 1207.115294L958.462118 1169.8447059999999L1313.888 814.1929399999999L1313.888 660.48L1160.17506 660.48L1134.76329 685.77882L1134.76329 835.7647099999999L1017.98212 835.7647099999999L1017.98212 952.545882L868.109176 952.545882L804.297412 1016.244706L757.088 1010.936471C643.356235 1010.936471 550.744471 1103.4352939999999 550.744471 1217.28C550.744471 1331.011765 643.356235 1423.736471 757.088 1423.736471zM762.068706 1298.7557649999999C715.311059 1298.7557649999999 677.362824 1260.8075290000002 677.362824 1214.049882C677.362824 1167.292235 715.311059 1129.344 762.068706 1129.344C808.826353 1129.344 846.774588 1167.292235 846.774588 1214.049882C846.774588 1260.8075290000002 808.826353 1298.7557649999999 762.068706 1298.7557649999999z" />
    <glyph glyph-name="alerts"
      unicode="&#xEA09;"
      horiz-adv-x="1920" d="M1298.82353 338.8235299999999C1298.82353 152.01882 1146.80471 0 960 0C773.195294 0 621.176471 152.01882 621.176471 338.8235299999999L1298.82353 338.8235299999999zM1016.47059 1920L1016.47059 1804.235294C1394.93647 1775.209412 1694.11765 1458.635294 1694.11765 1072.941176L1694.11765 1072.941176L1694.11765 790.58824C1694.11765 666.01412 1795.42588 564.70588 1920 564.70588L1920 564.70588L1920 451.7647099999999L0 451.7647099999999L0 564.70588C124.574118 564.70588 225.882353 666.01412 225.882353 790.58824L225.882353 790.58824L225.882353 1072.941176C225.882353 1458.635294 525.063529 1775.209412 903.529412 1804.235294L903.529412 1804.235294L903.529412 1920L1016.47059 1920z" />
    <glyph glyph-name="analytics"
      unicode="&#xEA0A;"
      horiz-adv-x="1920" d="M112.941176 1766.472941L112.941176 185.29647L338.823529 185.29647L338.823529 975.884706L790.588235 975.884706L790.588235 185.29647L903.529412 185.29647L903.529412 750.00235L1355.29412 750.00235L1355.29412 185.29647L1468.23529 185.29647L1468.23529 1201.767059L1920 1201.767059L1920 72.35529L-1e-13 72.35529L-1e-13 1766.472941L112.941176 1766.472941zM1586.59765 1847L1688.69647 1799C1681.69412 1783.865882 1511.94353 1428.327059 1248.33882 1362.595294C1138.56 1335.376471 1030.02353 1360.9011759999999 926.117647 1438.9435290000001C805.609412 1529.296471 705.882353 1555.498824 629.985882 1517.550588C496.376471 1450.802353 451.764706 1205.268235 451.764706 1145.296471L338.823529 1145.296471C338.823529 1239.489412 395.8588240000001 1526.811765 579.501176 1618.632941C697.298824 1677.362353 836.555294 1647.32 993.882353 1529.296471C1070.34353 1472.035294 1144.43294 1453.287059 1220.78118 1472.261176C1432.43294 1524.665882 1585.01647 1843.8376471 1586.59765 1847z" />
    <glyph glyph-name="android"
      unicode="&#xEA0B;"
      horiz-adv-x="1920" d="M1306.08595 1894.7749944C1323.25266 1920.750928644 1358.37664 1927.86607585 1384.35257 1910.47349379C1410.32851 1893.1938506 1417.33072 1858.1828088 1400.05107 1832.2068745L1400.05107 1832.2068745L1314.33049 1703.569531C1343.58165 1684.708744 1371.70342 1664.153874 1397.45348 1640.662594C1515.92633 1532.015426 1581.20498 1387.2278270000002 1581.20498 1232.953366L1581.20498 1232.953366L1581.20498 498.85088C1581.20498 410.5327 1505.19714 338.8165300000001 1411.79671 338.8165300000001L1411.79671 338.8165300000001L1242.38845 338.8165300000001L1242.38845 0L1129.4496 0L1129.4496 338.8165300000001L790.633067 338.8165300000001L790.633067 0L677.694223 0L677.694223 338.8165300000001L508.285956 338.8165300000001C414.885531 338.8165300000001 338.877689 410.5327 338.877689 498.85088L338.877689 498.85088L338.877689 1210.704413C338.877689 1411.283801 446.1695910000001 1590.969503 608.123894 1699.616671L608.123894 1699.616671L519.57984 1832.0939357C502.187258 1858.0698699 509.189467 1893.0809117 535.052462 1910.47349379C560.915457 1927.753137 596.039438 1920.750928644 613.43202 1894.8879333L613.43202 1894.8879333L707.735955 1753.8273159999999C767.593543 1779.690312 831.516929 1798.43816 899.619052 1804.423919C1008.94385 1814.023721 1116.57457 1796.5182 1213.70198 1756.311971L1213.70198 1756.311971zM225.938845 1185.8578670000002L225.938845 621.16364L113 621.16364L113 1185.8578670000002L225.938845 1185.8578670000002zM1807.08267 1185.8578670000002L1807.08267 621.16364L1694.14382 621.16364L1694.14382 1185.8578670000002L1807.08267 1185.8578670000002zM1185.91902 1468.204979C1123.68972 1468.204979 1072.98018 1417.495437 1072.98018 1355.266134C1072.98018 1293.036831 1123.68972 1242.32729 1185.91902 1242.32729C1248.14833 1242.32729 1298.85787 1293.036831 1298.85787 1355.266134C1298.85787 1417.495437 1248.14833 1468.204979 1185.91902 1468.204979zM734.163645 1468.204979C671.934341 1468.204979 621.2248 1417.495437 621.2248 1355.266134C621.2248 1293.036831 671.934341 1242.32729 734.163645 1242.32729C796.392948 1242.32729 847.102489 1293.036831 847.102489 1355.266134C847.102489 1417.495437 796.392948 1468.204979 734.163645 1468.204979z" />
    <glyph glyph-name="annotate"
      unicode="&#xEA0C;"
      horiz-adv-x="1920" d="M1468.23529 1807L1468.23529 1715.857512L822.674025 1057.1101429999999C806.765611 1040.605978 797.938192 1018.537431 798.075895 995.614819L798.07387 565.75602C797.833891 565.39003 797.597478 565.02037 797.364706 564.64706C773.647059 521.7294099999999 718.305882 459.61176 684.423529 463C650.541176 466.38824 640.376471 490.1058800000001 612.141176 559C576 648.22353 517.270588 765.68235 421.270588 756.64706C300.423529 746.48235 241.694118 530.7647099999999 221.364706 435.89412C214.815258 404.7062699999999 234.788626 374.1141500000001 265.976471 367.5647100000001C297.164315 361.0152599999999 327.756435 380.9886300000001 334.305882 412.1764700000001C346.721038 494.56979 380.174711 572.3690300000001 431.435294 638.05882C431.435294 638.05882 461.929412 627.8941199999999 509.364706 510.4352899999999C556.8 392.9764700000001 608.752941 348.92941 678.776471 344.41176L687.811765 344.41176C800.752941 344.41176 884.329412 487.8470600000001 893.364706 504.7882400000001C903.401798 520.88546 904.36106 540.0727199999999 897.630818 556.3628799999999L1237.32821 556.3625099999999C1260.50046 556.6925699999999 1282.60366 566.1653699999999 1298.82353 582.71765L1468.23529 755.58978L1468.23529 112.8823500000001L0 112.8823500000001L0 1807L1468.23529 1807zM564.705882 1242.294118L225.882353 1242.294118L225.882353 1129.352941L564.705882 1129.352941L564.705882 1242.294118zM790.588235 1468.176471L225.882353 1468.176471L225.882353 1355.235294L790.588235 1355.235294L790.588235 1468.176471zM1903.05882 1451.235294L1677.17647 1677.117647C1666.57318 1687.808244 1652.13953 1693.8215519999999 1637.08235 1693.8215519999999C1622.02517 1693.8215519999999 1607.59153 1687.808244 1596.98824 1677.117647L919.341176 999.470588C909.115192 988.861653 903.440895 974.675912 903.528392 959.941176L903.528392 677.58824L1185.88235 677.58824C1200.77756 677.8004000000001 1214.98557 683.8895500000001 1225.41176 694.5294100000001L1903.05882 1372.176471C1924.58219 1394.134692 1924.58219 1429.2770719999999 1903.05882 1451.235294zM1694.11765 1322.4823529999999L1548.42353 1468.176471L1637.64706 1557.4L1783.34118 1411.705882L1694.11765 1322.4823529999999z" />
    <glyph glyph-name="announcement"
      unicode="&#xEA0D;"
      horiz-adv-x="1920" d="M959.341941 564.7172C963.628574 564.7102600000001 980.239059 564.5367799999999 1005.17647 560.19984L1005.17647 560.19984L1001.78824 504.8586600000001C1000.65882 475.49396 975.811765 451.77631 946.447059 451.77631C880.941176 451.77631 835.764706 432.5763099999999 805.270588 394.1763100000001C736.376471 306.0821900000001 760.094118 131.0233700000001 774.776471 70.03513C779.294118 53.0939599999999 774.776471 35.0233700000001 764.611765 21.4704300000001C753.317647 7.91749 737.505882 0.0116 720.564706 0.0116L720.564706 0.0116L508.235294 0.0116C476.611765 0.0116 451.764706 24.8586600000001 451.764706 56.48219L451.764706 56.48219L451.764706 564.71749zM1587.16235 1888.7607804C1598.79529 1912.25254506 1624.77176 1924.33725094 1650.63529 1918.57725094C1676.16 1912.47842741 1694.11765 1889.7772509 1694.11765 1863.574898L1694.11765 1863.574898L1694.11765 1349.579604C1822.87059 1323.377251 1920 1209.3066629999998 1920 1072.9866630000001C1920 936.666663 1822.87059 822.4831300000001 1694.11765 796.28078L1694.11765 796.28078L1694.11765 282.39843C1694.11765 256.19607 1676.16 233.38196 1650.63529 227.39607C1646.23059 226.3796 1641.93882 225.9278400000001 1637.64706 225.9278400000001C1616.52706 225.9278400000001 1596.87529 237.67372 1587.16235 257.0996C1379.23765 672.8360700000001 964.178824 677.69255 960 677.69255L960 677.69255L395.2941180000001 677.69255C239.548235 677.69255 112.941176 804.2996 112.941176 960.045486L112.941176 960.045486L112.941176 1016.516074L56.4705882 1016.516074C25.2988235 1016.516074 0 1041.701957 0 1072.9866630000001C0 1104.1584269999998 25.2988235 1129.457251 56.4705882 1129.457251L56.4705882 1129.457251L112.941176 1129.457251L112.941176 1185.927839C112.941176 1341.56078 239.548235 1468.28078 395.2941180000001 1468.28078L395.2941180000001 1468.28078L959.887059 1468.28078C976.828235 1468.393722 1380.36706 1475.283133 1587.16235 1888.7607804z" />
    <glyph glyph-name="apple"
      unicode="&#xEA0E;"
      horiz-adv-x="1920" d="M972.668586 1369.407663C1047.03925 1369.407663 1186.48425 1472.801027 1333.29829 1457.722828C1394.74479 1455.1153199999999 1567.18043 1432.441337 1677.94284 1267.261368C1669.09998 1261.366132 1472.06307 1144.4817480000002 1474.44384 901.07654C1476.93797 610.16933 1724.4245 513.57816 1727.25875 512.1043500000001C1724.99135 505.5289 1687.69265 374.2465299999999 1596.76998 238.6561099999999C1518.20462 121.5449900000001 1436.80502 5.00072 1308.47028 2.61995C1182.28956 0.12581 1141.70313 78.9178999999999 997.383228 78.9178999999999C853.176694 78.9178999999999 808.168837 5.00072 688.676945 0.12581C564.763626 -4.63573 470.439855 126.6466399999999 391.307653 243.3042800000001C229.415412 482.1747 105.728833 917.96865 271.815761 1212.163589C354.235691 1358.297411 501.616582 1450.807263 661.694904 1453.1880310000001C783.340825 1455.45543 898.29792 1369.407663 972.668586 1369.407663zM1367.75141 1920C1380.78895 1809.464331 1333.06021 1698.475183 1262.6575 1618.549392C1191.91467 1538.73697 1076.16398 1476.610256 962.680696 1484.99963C947.375757 1593.49464 1004.62757 1706.184337 1069.92864 1777.1539050000001C1142.93886 1856.9663264 1266.17196 1916.14542283 1367.75141 1920z" />
    <glyph glyph-name="arrow-down"
      unicode="&#xEA0F;"
      horiz-adv-x="1920" d="M849.972557 1919.9889744517L849.972557 422.05799L486.901252 785.1292900000001L331 629.22804L960.228039 0L1589.45608 629.22804L1433.55483 785.1292900000001L1070.48352 422.05799L1070.48352 1919.9889744517z" />
    <glyph glyph-name="arrow-end"
      unicode="&#xEA10;"
      horiz-adv-x="1920" d="M1290.761 1588.996L1134.86 1433.095L1497.931 1070.024L0 1070.024L0 849.5129999999999L1497.931 849.5129999999999L1134.86 486.442L1290.761 330.54L1919.989 959.768z" />
    <glyph glyph-name="arrow-left"
      unicode="&#xEA11;"
      horiz-adv-x="1920" d="M629.228039 1588.9889739999999L0 959.760935L629.228039 330.5329L785.129292 486.43415L422.0579870000001 849.5054500000001L1919.98897 849.5054500000001L1919.98897 1070.0164180000002L422.0579870000001 1070.0164180000002L785.129292 1433.087722z" />
    <glyph glyph-name="arrow-open-down"
      unicode="&#xEA12;"
      horiz-adv-x="1920" d="M0.0794561278 1351.937352L176.209104 1528.067L960.197789 744.20288L1743.93735 1528.067L1920.067 1351.937352L960.197789 391.8190199999999z" />
    <glyph glyph-name="arrow-open-end"
      unicode="&#xEA13;"
      horiz-adv-x="1920" d="M568.129648 1919.9875438722L392 1743.857896L1175.86412 959.869211L392 176.1296500000001L568.129648 0L1528.24798 959.869211z" />
    <glyph glyph-name="arrow-open-left"
      unicode="&#xEA14;"
      horiz-adv-x="1920" d="M1352.0053520000001 1919.9875438722L1528.135 1743.857896L744.27088 959.869211L1528.135 176.1296500000001L1352.0053520000001 0L391.8870199999999 959.869211z" />
    <glyph glyph-name="arrow-open-right"
      unicode="&#xEA15;"
      horiz-adv-x="1920" d="M568.129648 1919.9875438722L392 1743.857896L1175.86412 959.869211L392 176.1296500000001L568.129648 0L1528.24798 959.869211z" />
    <glyph glyph-name="arrow-open-start"
      unicode="&#xEA16;"
      horiz-adv-x="1920" d="M1352.0053520000001 1919.9875438722L1528.135 1743.857896L744.27088 959.869211L1528.135 176.1296500000001L1352.0053520000001 0L391.8870199999999 959.869211z" />
    <glyph glyph-name="arrow-open-up"
      unicode="&#xEA17;"
      horiz-adv-x="1920" d="M0.0794561277999 568.0626480000001L176.2091039999999 391.933L960.197789 1175.79712L1743.9373499999997 391.933L1920.067 568.0626479999999L960.197789 1528.18098z" />
    <glyph glyph-name="arrow-right"
      unicode="&#xEA18;"
      horiz-adv-x="1920" d="M1290.761 1588.996L1134.86 1433.095L1497.931 1070.024L0 1070.024L0 849.5129999999999L1497.931 849.5129999999999L1134.86 486.442L1290.761 330.54L1919.989 959.768z" />
    <glyph glyph-name="arrow-start"
      unicode="&#xEA19;"
      horiz-adv-x="1920" d="M629.228039 1588.9889739999999L0 959.760935L629.228039 330.5329L785.129292 486.43415L422.0579870000001 849.5054500000001L1919.98897 849.5054500000001L1919.98897 1070.0164180000002L422.0579870000001 1070.0164180000002L785.129292 1433.087722z" />
    <glyph glyph-name="arrow-up"
      unicode="&#xEA1A;"
      horiz-adv-x="1920" d="M906.228 1919.999L277 1290.771L432.901 1134.87L795.973 1497.941L795.973 0.01L1016.483 0.01L1016.483 1497.941L1379.556 1134.87L1535.456 1290.771z" />
    <glyph glyph-name="assignment"
      unicode="&#xEA1B;"
      horiz-adv-x="1920" d="M1468.2137 1920L1468.2137 1368.855164L840.269996 740.91146C808.646932 709.2883899999999 790.576609 666.37138 790.576609 621.1955700000001L790.576609 621.1955700000001L790.576609 225.90727L1185.86491 225.90727C1231.04072 225.90727 1273.95774 243.97759 1305.5808 275.6006500000001L1305.5808 275.6006500000001L1468.2137 438.2335599999999L1468.2137 0.0282299999999L0 0.0282299999999L0 1920L1468.2137 1920zM1597.64239 1338.700313C1619.77853 1360.836458 1655.46742 1360.836458 1677.60356 1338.700313L1677.60356 1338.700313L1903.4826 1112.8212819999999C1925.5058 1090.798076 1925.5058 1055.1091900000001 1903.4826 1032.973045L1903.4826 1032.973045L1225.8455 355.3359499999999C1215.22919 344.83258 1200.88587 338.8467800000001 1185.86491 338.8467800000001L1185.86491 338.8467800000001L903.516125 338.8467800000001L903.516125 621.1955700000001C903.516125 636.2165299999999 909.501919 650.5598399999999 920.005294 661.06322L920.005294 661.06322zM677.637094 790.60484L338.818547 790.60484L338.818547 677.66533L677.637094 677.66533L677.637094 790.60484zM903.516125 1016.483875L338.818547 1016.483875L338.818547 903.54436L903.516125 903.54436L903.516125 1016.483875zM1637.62298 1218.9844269999999L1548.06194 1129.423391L1694.09273 983.392597L1783.65377 1072.953633L1637.62298 1218.9844269999999zM1129.39516 1581.181453L338.818547 1581.181453L338.818547 1242.3629059999998L1129.39516 1242.3629059999998L1129.39516 1581.181453z" />
    <glyph glyph-name="attach-media"
      unicode="&#xEA1C;"
      horiz-adv-x="1920" d="M1920 1212.959611L1920 500.55691C1919.89621 394.79666 1835.41256 308.7561900000001 1731.62429 308.7561900000001C1627.73223 308.7561900000001 1543.35236 394.9004500000001 1543.35236 500.8682799999999C1543.35236 606.8361 1627.73223 693.0841600000001 1731.62429 693.0841600000001C1762.24183 693.0841600000001 1790.7836 684.98867 1816.21173 671.7037700000001L1816.21173 671.7037700000001L1816.21173 1073.987115L1374.17748 943.213892L1374.17748 339.16615L1373.34717 339.16615C1368.98806 237.1422800000001 1286.89154 155.3571199999999 1185.90555 155.3571199999999C1082.01349 155.3571199999999 997.529839 241.5013899999999 997.529839 347.5730000000001C997.529839 453.43704 1082.01349 539.68509 1185.90555 539.68509C1216.4193 539.68509 1244.85729 531.58961 1270.38921 518.3047099999999L1270.38921 518.3047099999999L1270.38921 1020.743731L1920 1212.959611zM0.207576544 1675.045755C704.51479 1875.2533315 1351.01194 1674.941967 1351.01194 1674.941967L1351.01194 1674.941967L1351.01194 1194.402268L1149.03996 1133.6861290000002L1149.03996 673.69651C527.970939 557.8688 0 720.08986 0 720.08986L0 720.08986L0 1674.941967zM541.774779 1439.238801L541.774779 943.23465L752.56876 1067.2616349999998L963.466528 1191.184831L752.56876 1315.315604L541.774779 1439.238801z" />
    <glyph glyph-name="audio-off"
      unicode="&#xEA1D;"
      horiz-adv-x="1920" d="M1129.43333 1807L1129.43333 112.8499999999999L903.546667 112.8499999999999L451.773333 564.6233299999999L451.773333 1355.226667L903.546667 1807L1129.43333 1807zM338.83 1355.226667L338.83 564.6233299999999L169.415 564.6233299999999C76.609463 564.6233299999999 1.51524776 638.7894899999999 0.0226440087 731.23152L-2.025e-10 734.0383300000001L-2.025e-10 1185.811667C-2.025e-10 1278.6172040000001 74.1661599 1353.711419 166.60819 1355.204023L169.415 1355.226667L338.83 1355.226667zM1789.95097 1285L1920 1155.073543L1724.98774 960.061286L1920 765.0490299999999L1789.95097 635L1595.06129 830.01226L1400.04903 635L1270 765.0490299999999L1465.01226 960.061286L1270 1155.073543L1400.04903 1285L1595.06129 1089.9877430000001L1789.95097 1285z" />
    <glyph glyph-name="audio"
      unicode="&#xEA1E;"
      horiz-adv-x="1920" d="M1129.4317 1807L1129.4317 112.8524600000001L903.545357 112.8524600000001L451.772678 564.6251299999999L451.772678 1355.227322L903.545357 1807L1129.4317 1807zM1671.9768 1558.942917C1832.01727 1398.902445 1920 1186.117514 1920 959.892345C1920 733.6671799999999 1832.01727 520.9951900000001 1671.9768 360.95472L1671.9768 360.95472L1592.12598 440.8055400000001C1730.82019 579.38681 1807.05683 763.8230000000001 1807.05683 959.892345C1807.05683 1156.074631 1730.82019 1340.397883 1592.12598 1479.092096L1592.12598 1479.092096zM338.829509 1355.227322L338.829509 564.6251299999999L169.414754 564.6251299999999C75.6719236 564.6251299999999 0 640.2970600000001 0 734.03989L0 734.03989L0 1185.812567C0 1279.555398 75.6719236 1355.227322 169.414754 1355.227322L169.414754 1355.227322L338.829509 1355.227322zM1432.75187 1319.141979C1528.52768 1222.1237959999999 1581.1592 1094.4980150000001 1581.1592 959.9827C1581.1592 825.3544400000001 1528.52768 697.72866 1432.75187 600.71048L1432.75187 600.71048L1352.44928 679.88364C1427.10471 755.78145 1468.21603 855.28438 1468.21603 959.9827C1468.21603 1064.5680750000001 1427.10471 1164.071007 1352.44928 1239.968817L1352.44928 1239.968817z" />
    <glyph glyph-name="bank"
      unicode="&#xEA1F;"
      horiz-adv-x="1920" d="M1209.41883 1276.526683C1097.6977 1341.286344 966.998976 1340.643036 850.667466 1274.489542L797.701783 1367.769186C945.877034 1452.042519 1119.99904 1452.471391 1263.24226 1369.055801L1209.41883 1276.526683zM643.30789 959.268676C584.016346 959.268676 536.089908 1007.195114 536.089908 1066.486657C536.089908 1125.778201 584.016346 1173.704639 643.30789 1173.704639C702.492215 1173.704639 750.525871 1125.778201 750.525871 1066.486657C750.525871 1007.195114 702.492215 959.268676 643.30789 959.268676L643.30789 959.268676zM1908.26564 1128.458651C1879.74565 1243.396327 1784.85774 1315.661247 1687.18216 1315.232375C1552.19472 1533.849839 1365.95709 1621.339712 1230.64799 1655.97112C1050.73622 1702.18207 866.106855 1678.594114 755.35068 1628.952189C646.631647 1730.916489 474.546787 1739.9228 344.491375 1644.28436L299.995913 1611.582876L334.091231 1568.052375C358.322495 1537.280815 388.665183 1483.88626 409.358254 1425.023588C327.979806 1363.909338 257.001502 1248.971662 232.12693 1159.444647C189.239738 1129.101959 125.33782 1111.9470820000001 53.6089908 1111.9470820000001L0 1111.9470820000001L0 827.0689C0 716.7416000000001 65.9390587 642.65398 176.588016 629.03729C230.51866 622.38978 254.535488 596.76468 290.882384 557.84455C333.2334870000001 512.5985599999999 384.162028 457.9173900000001 490.30783 433.57891C472.080773 381.2565400000001 445.16906 312.8514600000001 432.731774 282.5087799999999L402.817957 208.7428L755.565116 208.7428C815.92884 208.7428 863.104752 237.47722 884.548348 286.4758400000001L919.394192 362.60061C923.146822 371.82135 942.87493 386.7246500000001 960.351461 387.26074C986.512649 388.01127 1041.0866 387.6896200000001 1087.19033 387.3679600000001L1140.90654 387.1535300000001C1146.91075 387.1535300000001 1159.56247 387.1535300000001 1177.57509 356.3819699999999L1216.92409 287.2263700000001C1242.76362 239.5143700000001 1291.22615 209.8149800000001 1343.33409 209.8149800000001L1662.4148 208.4211499999999L1595.72522 495.0148200000001C1718.16816 574.3561199999999 1799.22495 712.9889700000001 1801.47653 846.9042300000001C1906.65737 907.80404 1940.53825 997.974367 1908.26564 1128.458651L1908.26564 1128.458651z" />
    <glyph glyph-name="blueprint-lock"
      unicode="&#xEA20;"
      horiz-adv-x="1920" d="M1300.007 1243.0004C1485.521 1243.0004 1636.515 1092.0624 1636.515 906.4934L1636.515 906.4934L1636.515 673.0003999999999L1779.015 673.0003999999999L1779.015 158.3684000000001C1779.015 71.0144 1707.985 -0.0146 1620.632 -0.0146L1620.632 -0.0146L979.382 -0.0146C892.029 -0.0146 821 71.0144 821 158.3684000000001L821 158.3684000000001L821 673.0003999999999L963.5 673.0003999999999L963.5 906.4934C963.5 1092.0624 1114.492 1243.0004 1300.007 1243.0004zM1581.1771 1581.1766L1581.1771 1355.2946L1468.2351 1355.2946L1468.2351 1468.2356L451.7651 1468.2356L451.7651 451.7646L564.7061 451.7646L564.7061 338.8236L338.8241 338.8236L338.8241 1581.1766L1581.1771 1581.1766zM1300.007 1139.9854C1171.294 1139.9854 1066.515 1035.2064 1066.515 906.4934L1066.515 906.4934L1066.515 673.0003999999999L1533.5 673.0003999999999L1533.5 906.4934C1533.5 1035.2064 1428.721 1139.9854 1300.007 1139.9854zM1242.353 1920L1242.353 1694.118L1129.412 1694.118L1129.412 1807.059L112.941 1807.059L112.941 790.588L225.882 790.588L225.882 677.6479999999999L1e-13 677.6479999999999L1e-13 1920L1242.353 1920z" />
    <glyph glyph-name="blueprint"
      unicode="&#xEA21;"
      horiz-adv-x="1920" d="M790.5886 169.412L790.5886 112.941L847.0586 112.941L847.0586 0L677.6466 0L677.6466 169.412L790.5886 169.412zM1208.383 112.941L1208.383 0L1027.721 0L1027.721 112.941L1208.383 112.941zM1569.816 112.941L1569.816 0L1389.154 0L1389.154 112.941L1569.816 112.941zM1920 169.412L1920 0L1750.588 0L1750.588 112.941L1807.059 112.941L1807.059 169.412L1920 169.412zM1581.1771 1581.1761999999999L1581.1771 1355.2942L1468.2351 1355.2942L1468.2351 1468.2352L451.7651 1468.2352L451.7651 451.7642000000001L564.7061 451.7642000000001L564.7061 338.8232000000001L338.8241 338.8232000000001L338.8241 1581.1761999999999L1581.1771 1581.1761999999999zM1920 530.7349999999999L1920 350.0730000000001L1807.059 350.0730000000001L1807.059 530.7349999999999L1920 530.7349999999999zM790.588 530.846L790.588 350.184L677.647 350.184L677.647 530.846L790.588 530.846zM1242.353 1919.9996L1242.353 1694.1176L1129.412 1694.1176L1129.412 1807.0586L112.941 1807.0586L112.941 790.5876000000001L225.882 790.5876000000001L225.882 677.6476L1e-13 677.6476L1e-13 1919.9996L1242.353 1919.9996zM1920 892.1690000000001L1920 711.508L1807.059 711.508L1807.059 892.1690000000001L1920 892.1690000000001zM790.588 892.279L790.588 711.617L677.647 711.617L677.647 892.279L790.588 892.279zM1920 1242.3534L1920 1072.9414000000002L1807.059 1072.9414000000002L1807.059 1129.4114L1750.588 1129.4114L1750.588 1242.3534L1920 1242.3534zM847.0584 1242.3534L847.0584 1129.4114L790.5884 1129.4114L790.5884 1072.9414000000002L677.6474 1072.9414000000002L677.6474 1242.3534L847.0584 1242.3534zM1208.492 1242.353L1208.492 1129.412L1027.831 1129.412L1027.831 1242.353L1208.492 1242.353zM1569.927 1242.353L1569.927 1129.412L1389.265 1129.412L1389.265 1242.353L1569.927 1242.353z" />
    <glyph glyph-name="bold"
      unicode="&#xEA22;"
      horiz-adv-x="1920" d="M480.285714 1097.142857L1028.85714 1097.142857C1180.12571 1097.142857 1303.14286 1220.1599999999999 1303.14286 1371.428571C1303.14286 1522.6971429999999 1180.12571 1645.714286 1028.85714 1645.714286L480.285714 1645.714286L480.285714 1097.142857zM480.285714 274.2857100000001L1166 274.2857100000001C1317.26857 274.2857100000001 1440.28571 397.30286 1440.28571 548.57143C1440.28571 699.8399999999999 1317.26857 822.8571400000001 1166 822.8571400000001L480.285714 822.8571400000001L480.285714 274.2857100000001zM1166 0L206 0L206 1920L1028.85714 1920C1331.39429 1920 1577.42857 1673.965714 1577.42857 1371.428571C1577.42857 1237.165714 1528.88 1114.0114290000001 1448.65143 1018.697143C1607.87429 922.56 1714.57143 747.7028600000001 1714.57143 548.57143C1714.57143 246.0342900000001 1468.53714 0 1166 0L1166 0z" />
    <glyph glyph-name="bookmark"
      unicode="&#xEA23;"
      horiz-adv-x="1920" d="M1585.96251 0L960.481253 375.28875L335 0L335 1749.414204C335 1843.4638394 411.536161 1920 505.585796 1920L1415.37671 1920C1509.42635 1920 1585.96251 1843.4638394 1585.96251 1749.414204L1585.96251 0z" />
    <glyph glyph-name="box"
      unicode="&#xEA24;"
      horiz-adv-x="1920" d="M1468.23529 1920L1468.23529 1807.058824L451.764706 1807.058824L451.764706 1920L0 1920L0 1468.122353L112.941176 1468.122353L112.941176 451.65176L0 451.65176L0 0L451.764706 0L451.764706 112.94118L1468.23529 112.94118L1468.23529 0L1920.11294 0L1920.11294 451.65176L1807.17176 451.65176L1807.17176 1468.122353L1920.11294 1468.122353L1920.11294 1920L1468.23529 1920zM225.882353 1468.122353L451.764706 1468.122353L451.764706 1694.117647L1468.23529 1694.117647L1468.23529 1468.122353L1694.23059 1468.122353L1694.23059 451.65176L1468.23529 451.65176L1468.23529 225.8823500000001L451.764706 225.8823500000001L451.764706 451.65176L225.882353 451.65176L225.882353 1468.122353z" />
    <glyph glyph-name="bullet-list-alpha"
      unicode="&#xEA25;"
      horiz-adv-x="1920" d="M626.15 1389.325L1906.15 1389.325L1906.15 1614.325L626.15 1614.325L626.15 1389.325zM626.15 824.325L1906.15 824.325L1906.15 1049.325L626.15 1049.325L626.15 824.325zM626.15 261.3250000000001L1906.15 261.3250000000001L1906.15 486.325L626.15 486.325L626.15 261.3250000000001zM271.675 1490.5L234.55 1600.225C231.8 1607.192 228.867 1615.396 225.75 1624.838C222.633 1634.279 219.517 1644.5 216.4 1655.5C213.65 1644.317 210.717 1633.958 207.6 1624.425C204.483 1614.892 201.55 1606.642 198.8 1599.675L161.95 1490.5L271.675 1490.5zM419.35 1337.325L347.3 1337.325C339.233 1337.325 332.725 1339.204 327.775 1342.963C322.825 1346.721 319.067 1351.533 316.5 1357.4L292.85 1427.25L140.5 1427.25L116.85 1357.4C114.833 1352.267 111.213 1347.638 105.988 1343.513C100.762 1339.387 94.3 1337.325 86.6 1337.325L14 1337.325L169.1 1738L264.25 1738L419.35 1337.325zM230.325 807.45C242.608 807.45 252.646 809.008 260.437 812.125C268.229 815.242 274.325 819.2750000000001 278.725 824.2249999999999C283.125 829.175 286.15 834.7660000000001 287.8 841C289.45 847.233 290.275 853.558 290.275 859.9749999999999C290.275 867.308 289.312 873.9079999999999 287.388 879.7750000000001C285.463 885.6410000000001 282.162 890.5909999999999 277.488 894.625C272.812 898.659 266.625 901.775 258.925 903.975C251.225 906.175 241.509 907.275 229.775 907.275L164.875 907.275L164.875 807.45L230.325 807.45zM164.875 1068.425L164.875 969.425L213.275 969.425C223.542 969.425 232.8 970.158 241.05 971.625C249.3 973.092 256.312 975.658 262.088 979.325C267.863 982.992 272.263 988.033 275.287 994.45C278.312 1000.867 279.825 1008.933 279.825 1018.65C279.825 1028.183 278.633 1036.112 276.25 1042.438C273.867 1048.762 270.2 1053.85 265.25 1057.7C260.3 1061.55 254.021 1064.3 246.412 1065.95C238.804 1067.6 229.775 1068.425 219.325 1068.425L164.875 1068.425zM219.325 1138C247.009 1138 270.567 1135.433 290 1130.3C309.433 1125.167 325.292 1117.925 337.575 1108.575C349.858 1099.225 358.796 1087.859 364.388 1074.475C369.979 1061.091 372.775 1046.15 372.775 1029.65C372.775 1020.667 371.492 1012.004 368.925 1003.663C366.358 995.321 362.325 987.529 356.825 980.288C351.325 973.046 344.267 966.4 335.65 960.35C327.034 954.3 316.675 949.075 304.575 944.675C330.975 938.258 350.5 927.9 363.15 913.6C375.8 899.299 382.125 880.7840000000001 382.125 858.05C382.125 841 378.825 825.1410000000001 372.225 810.4749999999999C365.625 795.808 355.954 783.021 343.213 772.113C330.471 761.204 314.75 752.6790000000001 296.05 746.538C277.35 740.396 255.992 737.325 231.975 737.325L71.925 737.325L71.925 1138L219.325 1138zM345.975 291C348.175 291 350.375 290.588 352.575 289.762C354.775 288.9369999999999 356.883 287.5160000000001 358.9 285.5L395.75 246.7249999999999C379.617 225.6410000000001 359.404 209.7380000000001 335.113 199.012C310.8210000000001 188.288 282.0830000000001 182.925 248.9 182.925C218.467 182.925 191.196 188.1040000000001 167.088 198.463C142.979 208.8209999999999 122.537 223.1210000000001 105.762 241.3630000000001C88.988 259.6040000000001 76.108 281.2370000000001 67.125 306.262C58.141 331.288 53.65 358.4659999999999 53.65 387.8C53.65 417.683 58.508 445.137 68.225 470.163C77.942 495.1869999999999 91.6 516.7750000000001 109.2 534.925C126.8 553.075 147.883 567.192 172.45 577.2750000000001C197.017 587.358 224.058 592.4000000000001 253.575 592.4000000000001C268.608 592.4000000000001 282.771 591.0709999999999 296.062 588.413C309.354 585.7550000000001 321.775 582.088 333.325 577.413C344.875 572.738 355.508 567.0999999999999 365.225 560.5C374.942 553.9000000000001 383.558 546.75 391.075 539.05L359.725 496.9749999999999C357.7080000000001 494.4079999999999 355.325 492.0709999999999 352.575 489.963C349.825 487.854 345.975 486.8 341.025 486.8C337.725 486.8 334.608 487.5329999999999 331.675 489C328.742 490.4659999999999 325.625 492.2550000000001 322.325 494.3630000000001C319.025 496.47 315.404 498.7619999999999 311.463 501.2380000000001C307.521 503.713 302.846 506.0050000000001 297.437 508.1130000000001C292.029 510.22 285.704 512.008 278.463 513.4749999999999C271.221 514.942 262.742 515.675 253.025 515.675C237.625 515.675 223.554 512.8340000000001 210.812 507.1500000000001C198.071 501.4659999999999 187.071 493.171 177.812 482.2619999999999C168.554 471.354 161.404 457.971 156.363 442.1130000000001C151.321 426.2550000000001 148.8 408.1500000000001 148.8 387.8C148.8 367.2660000000001 151.596 349.0250000000001 157.187 333.0750000000001C162.779 317.125 170.387 303.6959999999999 180.012 292.788C189.637 281.8800000000001 200.867 273.5840000000001 213.7 267.9000000000001C226.533 262.2159999999999 240.283 259.375 254.95 259.375C263.384 259.375 271.0830000000001 259.788 278.05 260.6130000000001C285.017 261.4369999999999 291.525 262.8119999999999 297.575 264.7380000000001C303.625 266.663 309.308 269.2290000000001 314.625 272.4369999999999C319.942 275.646 325.35 279.7249999999999 330.85 284.675C333.05 286.5080000000001 335.433 288.021 338 289.213C340.567 290.404 343.225 291 345.975 291L345.975 291z" />
    <glyph glyph-name="bullet-list-circle-outline"
      unicode="&#xEA26;"
      horiz-adv-x="1920" d="M640 1422L1920 1422L1920 1647L640 1647L640 1422zM640 857L1920 857L1920 1082L640 1082L640 857zM640 292L1920 292L1920 517L640 517L640 292zM226.5 1308C101.408 1308 0 1409.408 0 1534.5C0 1659.592 101.408 1761 226.5 1761C351.592 1761 453 1659.592 453 1534.5C453 1409.408 351.592 1308 226.5 1308L226.5 1308zM226.5 1418C290.841 1418 343 1470.159 343 1534.5C343 1598.841 290.841 1651 226.5 1651C162.159 1651 110 1598.841 110 1534.5C110 1470.159 162.159 1418 226.5 1418L226.5 1418zM226.5 170C101.408 170 0 271.407 0 396.5C0 521.5930000000001 101.408 623 226.5 623C351.592 623 453 521.5930000000001 453 396.5C453 271.407 351.592 170 226.5 170L226.5 170zM226.5 280C290.841 280 343 332.1590000000001 343 396.5C343 460.8409999999999 290.841 513 226.5 513C162.159 513 110 460.8409999999999 110 396.5C110 332.1590000000001 162.159 280 226.5 280L226.5 280zM226.5 743C101.408 743 0 844.4069999999999 0 969.5C0 1094.5929999999998 101.408 1196 226.5 1196C351.592 1196 453 1094.5929999999998 453 969.5C453 844.4069999999999 351.592 743 226.5 743L226.5 743zM226.5 853C290.841 853 343 905.159 343 969.5C343 1033.841 290.841 1086 226.5 1086C162.159 1086 110 1033.841 110 969.5C110 905.159 162.159 853 226.5 853L226.5 853z" />
    <glyph glyph-name="bullet-list-roman"
      unicode="&#xEA27;"
      horiz-adv-x="1920" d="M375 1334.325L468.5 1334.325L468.5 1735L375 1735L375 1334.325zM640.225 1387.325L1920.225 1387.325L1920.225 1612.325L640.225 1612.325L640.225 1387.325zM375.275 735.325L468.775 735.325L468.775 1136L375.275 1136L375.275 735.325zM190.225 735.325L283.725 735.325L283.725 1136L190.225 1136L190.225 735.325zM640.225 822.3240000000001L1920.225 822.3240000000001L1920.225 1047.325L640.225 1047.325L640.225 822.3240000000001zM375.225 185.3250000000001L468.724 185.3250000000001L468.724 586.001L375.225 586.001L375.225 185.3250000000001zM191.225 185.3250000000001L284.725 185.3250000000001L284.725 586.001L191.225 586.001L191.225 185.3250000000001zM8 185.3250000000001L101.5 185.3250000000001L101.5 586.001L8 586.001L8 185.3250000000001zM640.225 259.3250000000001L1920.225 259.3250000000001L1920.225 484.325L640.225 484.325L640.225 259.3250000000001z" />
    <glyph glyph-name="bullet-list-square"
      unicode="&#xEA28;"
      horiz-adv-x="1920" d="M0 1307.999L425 1307.999L425 1733L0 1733L0 1307.999zM640 1412.999L1920 1412.999L1920 1637.999L640 1637.999L640 1412.999zM0 747.999L425 747.999L425 1172.999L0 1172.999L0 747.999zM640 847.999L1920 847.999L1920 1072.999L640 1072.999L640 847.999zM0 187.999L425 187.999L425 612.999L0 612.999L0 187.999zM640 284.999L1920 284.999L1920 509.999L640 509.999L640 284.999z" />
    <glyph glyph-name="bullet-list"
      unicode="&#xEA29;"
      horiz-adv-x="1920" d="M225.882353 621.58824C350.456471 621.58824 451.764706 520.28 451.764706 395.70588C451.764706 271.13176 350.456471 169.8235299999999 225.882353 169.8235299999999C101.308235 169.8235299999999 0 271.13176 0 395.70588C0 520.28 101.308235 621.58824 225.882353 621.58824zM1920 508.64706L1920 282.7647099999999L677.647059 282.7647099999999L677.647059 508.64706L1920 508.64706zM225.882353 1186.294118C350.456471 1186.294118 451.764706 1084.985882 451.764706 960.411765C451.764706 835.8376499999999 350.456471 734.5294100000001 225.882353 734.5294100000001C101.308235 734.5294100000001 0 835.8376499999999 0 960.411765C0 1084.985882 101.308235 1186.294118 225.882353 1186.294118zM1920 1073.352941L1920 847.4705899999999L677.647059 847.4705899999999L677.647059 1073.352941L1920 1073.352941zM225.882353 1751C350.456471 1751 451.764706 1649.691765 451.764706 1525.117647C451.764706 1400.543529 350.456471 1299.235294 225.882353 1299.235294C101.308235 1299.235294 0 1400.543529 0 1525.117647C0 1649.691765 101.308235 1751 225.882353 1751zM1920 1638.058824L1920 1412.176471L677.647059 1412.176471L677.647059 1638.058824L1920 1638.058824z" />
    <glyph glyph-name="calculator"
      unicode="&#xEA2A;"
      horiz-adv-x="1920" d="M480 1920L1440 1920C1616.73112 1920 1760 1776.73112 1760 1600L1760 320C1760 143.2688800000001 1616.73112 0 1440 0L480 0C303.26888 0 160 143.2688800000001 160 320L160 1600C160 1776.73112 303.26888 1920 480 1920zM586.666667 1706.666667C468.84592 1706.666667 373.333333 1611.15408 373.333333 1493.333333C373.333333 1375.5125870000002 468.84592 1280 586.666667 1280L1333.33333 1280C1451.15408 1280 1546.66667 1375.5125870000002 1546.66667 1493.333333C1546.66667 1611.15408 1451.15408 1706.666667 1333.33333 1706.666667L586.666667 1706.666667zM480 1066.666667C421.089627 1066.666667 373.333333 1018.910373 373.333333 960C373.333333 901.08963 421.089627 853.3333299999999 480 853.3333299999999L586.666667 853.3333299999999C645.57704 853.3333299999999 693.333333 901.08963 693.333333 960C693.333333 1018.910373 645.57704 1066.666667 586.666667 1066.666667L480 1066.666667zM906.666667 1066.666667C847.756293 1066.666667 800 1018.910373 800 960C800 901.08963 847.756293 853.3333299999999 906.666667 853.3333299999999L1013.33333 853.3333299999999C1072.24371 853.3333299999999 1120 901.08963 1120 960C1120 1018.910373 1072.24371 1066.666667 1013.33333 1066.666667L906.666667 1066.666667zM1333.33333 1066.666667C1274.42296 1066.666667 1226.66667 1018.910373 1226.66667 960C1226.66667 901.08963 1274.42296 853.3333299999999 1333.33333 853.3333299999999L1440 853.3333299999999C1498.91037 853.3333299999999 1546.66667 901.08963 1546.66667 960C1546.66667 1018.910373 1498.91037 1066.666667 1440 1066.666667L1333.33333 1066.666667zM480 746.6666700000001C421.089627 746.6666700000001 373.333333 698.9103700000001 373.333333 640C373.333333 581.0896299999999 421.089627 533.3333299999999 480 533.3333299999999L586.666667 533.3333299999999C645.57704 533.3333299999999 693.333333 581.0896299999999 693.333333 640C693.333333 698.9103700000001 645.57704 746.6666700000001 586.666667 746.6666700000001L480 746.6666700000001zM906.666667 746.6666700000001C847.756293 746.6666700000001 800 698.9103700000001 800 640C800 581.0896299999999 847.756293 533.3333299999999 906.666667 533.3333299999999L1013.33333 533.3333299999999C1072.24371 533.3333299999999 1120 581.0896299999999 1120 640C1120 698.9103700000001 1072.24371 746.6666700000001 1013.33333 746.6666700000001L906.666667 746.6666700000001zM1333.33333 746.6666700000001C1274.42296 746.6666700000001 1226.66667 698.9103700000001 1226.66667 640C1226.66667 581.0896299999999 1274.42296 533.3333299999999 1333.33333 533.3333299999999L1440 533.3333299999999C1498.91037 533.3333299999999 1546.66667 581.0896299999999 1546.66667 640C1546.66667 698.9103700000001 1498.91037 746.6666700000001 1440 746.6666700000001L1333.33333 746.6666700000001zM480 426.6666700000001C421.089627 426.6666700000001 373.333333 378.9103700000001 373.333333 320C373.333333 261.08963 421.089627 213.3333299999999 480 213.3333299999999L586.666667 213.3333299999999C645.57704 213.3333299999999 693.333333 261.08963 693.333333 320C693.333333 378.9103700000001 645.57704 426.6666700000001 586.666667 426.6666700000001L480 426.6666700000001zM906.666667 426.6666700000001C847.756293 426.6666700000001 800 378.9103700000001 800 320C800 261.08963 847.756293 213.3333299999999 906.666667 213.3333299999999L1013.33333 213.3333299999999C1072.24371 213.3333299999999 1120 261.08963 1120 320C1120 378.9103700000001 1072.24371 426.6666700000001 1013.33333 426.6666700000001L906.666667 426.6666700000001zM1333.33333 426.6666700000001C1274.42296 426.6666700000001 1226.66667 378.9103700000001 1226.66667 320C1226.66667 261.08963 1274.42296 213.3333299999999 1333.33333 213.3333299999999L1440 213.3333299999999C1498.91037 213.3333299999999 1546.66667 261.08963 1546.66667 320C1546.66667 378.9103700000001 1498.91037 426.6666700000001 1440 426.6666700000001L1333.33333 426.6666700000001z" />
    <glyph glyph-name="calendar-add"
      unicode="&#xEA2B;"
      horiz-adv-x="1920" d="M1694.176 1468.2350000000001L225.942 1468.2350000000001L225.942 1637.647C225.942 1668.819 251.353 1694.118 282.4120000000001 1694.118L451.823 1694.118L451.823 1637.647C451.823 1606.475 477.123 1581.176 508.294 1581.176C539.466 1581.176 564.765 1606.475 564.765 1637.647L564.765 1694.118L1355.354 1694.118L1355.354 1637.647C1355.354 1606.475 1380.654 1581.176 1411.824 1581.176C1442.995 1581.176 1468.294 1606.475 1468.294 1637.647L1468.294 1694.118L1637.706 1694.118C1668.765 1694.118 1694.176 1668.819 1694.176 1637.647L1694.176 1468.2350000000001zM1355.354 677.6489999999999L1016.53 677.6489999999999L1016.53 338.8230000000001L903.589 338.8230000000001L903.589 677.6489999999999L564.765 677.6489999999999L564.765 790.588L903.589 790.588L903.589 1129.412L1016.53 1129.412L1016.53 790.588L1355.354 790.588L1355.354 677.6489999999999zM1637.706 1807.059L1468.294 1807.059L1468.294 1863.529C1468.294 1894.701 1442.995 1920 1411.824 1920C1380.654 1920 1355.354 1894.701 1355.354 1863.529L1355.354 1807.059L564.765 1807.059L564.765 1863.529C564.765 1894.701 539.466 1920 508.294 1920C477.123 1920 451.823 1894.701 451.823 1863.529L451.823 1807.059L282.4120000000001 1807.059C189.009 1807.059 113 1731.049 113 1637.647L113 0L1807.118 0L1807.118 1637.647C1807.118 1731.049 1731.11 1807.059 1637.706 1807.059L1637.706 1807.059z" />
    <glyph glyph-name="calendar-clock"
      unicode="&#xEA2C;"
      horiz-adv-x="1920" d="M1439.667 502.0800999999999L1439.667 693.3331000000001L1333 693.3331000000001L1333 480.0001C1333 465.8121000000001 1338.653 452.2671 1348.573 442.2401L1471.987 318.9341L1547.4 394.3471L1439.667 502.0800999999999zM1386.333 106.6669999999999C1180.467 106.6669999999999 1013 274.1330000000001 1013 480C1013 685.867 1180.467 853.3330000000001 1386.333 853.3330000000001C1592.2 853.3330000000001 1759.667 685.867 1759.667 480C1759.667 274.1330000000001 1592.2 106.6669999999999 1386.333 106.6669999999999L1386.333 106.6669999999999zM159.666 1653.333C159.666 1682.773 183.666 1706.667 213 1706.667L373 1706.667L373 1653.333C373 1623.893 396.894 1600 426.3330000000001 1600C455.773 1600 479.666 1623.893 479.666 1653.333L479.666 1706.667L1226.333 1706.667L1226.333 1653.333C1226.333 1623.893 1250.227 1600 1279.667 1600C1309.107 1600 1333 1623.893 1333 1653.333L1333 1706.667L1493 1706.667C1522.333 1706.667 1546.333 1682.773 1546.333 1653.333L1546.333 1493.333L159.666 1493.333L159.666 1653.333zM1653 878.72L1653 1653.333C1653 1741.547 1581.213 1813.333 1493 1813.333L1333 1813.333L1333 1866.667C1333 1896.107 1309.107 1920 1279.667 1920C1250.227 1920 1226.333 1896.107 1226.333 1866.667L1226.333 1813.333L479.666 1813.333L479.666 1866.667C479.666 1896.107 455.773 1920 426.3330000000001 1920C396.894 1920 373 1896.107 373 1866.667L373 1813.333L213 1813.333C124.787 1813.333 53 1741.547 53 1653.333L53 106.6669999999999L1088.307 106.6669999999999C1170.547 40.96 1273.16 0 1386.333 0C1650.973 0 1866.333 215.3599999999999 1866.333 480C1866.333 646.0799999999999 1781.533 792.5329999999999 1653 878.72L1653 878.72z" />
    <glyph glyph-name="calendar-day"
      unicode="&#xEA2D;"
      horiz-adv-x="1920" d="M1694.176 1468.2350000000001L225.942 1468.2350000000001L225.942 1637.647C225.942 1669.271 250.788 1694.118 282.4120000000001 1694.118L451.823 1694.118L451.823 1637.647C451.823 1606.024 476.671 1581.176 508.294 1581.176C539.918 1581.176 564.765 1606.024 564.765 1637.647L564.765 1694.118L1355.354 1694.118L1355.354 1637.647C1355.354 1606.024 1380.2 1581.176 1411.824 1581.176C1443.447 1581.176 1468.294 1606.024 1468.294 1637.647L1468.294 1694.118L1637.706 1694.118C1669.329 1694.118 1694.176 1669.271 1694.176 1637.647L1694.176 1468.2350000000001zM1216.436 618.9179999999999C1216.436 484.518 1111.4009999999998 387.3889999999999 957.8 387.3889999999999C829.047 387.3889999999999 736.436 440.471 674.318 516.1410000000001L764.671 599.7180000000001C817.753 537.5999999999999 877.612 503.7180000000001 960.059 503.7180000000001C1032.341 503.7180000000001 1087.683 546.635 1087.683 613.2719999999999L1087.683 615.529C1087.683 687.8130000000001 1021.047 728.471 917.141 728.471L857.282 728.471L835.823 808.6590000000001L1035.73 1017.6L716.106 1017.6L716.106 1129.412L1205.141 1129.412L1205.141 1033.412L998.459 825.5999999999999C1110.271 812.047 1216.436 755.576 1216.436 621.1769999999999L1216.436 618.9179999999999zM1637.706 1807.059L1468.294 1807.059L1468.294 1863.529C1468.294 1895.153 1443.447 1920 1411.824 1920C1380.2 1920 1355.354 1895.153 1355.354 1863.529L1355.354 1807.059L564.765 1807.059L564.765 1863.529C564.765 1895.153 539.918 1920 508.294 1920C476.671 1920 451.823 1895.153 451.823 1863.529L451.823 1807.059L282.4120000000001 1807.059C188.671 1807.059 112.9999999999996 1731.388 112.9999999999996 1637.647L112.9999999999996 0L1807.118 0L1807.118 1637.647C1807.118 1731.388 1731.447 1807.059 1637.706 1807.059L1637.706 1807.059z" />
    <glyph glyph-name="calendar-days"
      unicode="&#xEA2E;"
      horiz-adv-x="1920" d="M1694.176 1468.2350000000001L225.942 1468.2350000000001L225.942 1637.647C225.942 1669.271 250.788 1694.118 282.4120000000001 1694.118L451.823 1694.118L451.823 1637.647C451.823 1606.024 476.671 1581.176 508.294 1581.176C539.918 1581.176 564.765 1606.024 564.765 1637.647L564.765 1694.118L1355.354 1694.118L1355.354 1637.647C1355.354 1606.024 1380.2 1581.176 1411.824 1581.176C1443.447 1581.176 1468.294 1606.024 1468.294 1637.647L1468.294 1694.118L1637.706 1694.118C1669.329 1694.118 1694.176 1669.271 1694.176 1637.647L1694.176 1468.2350000000001zM1216.436 618.9179999999999C1216.436 484.518 1111.4009999999998 387.3889999999999 957.8 387.3889999999999C829.047 387.3889999999999 736.436 440.471 674.318 516.1410000000001L764.671 599.7180000000001C817.753 537.5999999999999 877.612 503.7180000000001 960.059 503.7180000000001C1032.341 503.7180000000001 1087.683 546.635 1087.683 613.2719999999999L1087.683 615.529C1087.683 687.8130000000001 1021.047 728.471 917.141 728.471L857.282 728.471L835.823 808.6590000000001L1035.73 1017.6L716.106 1017.6L716.106 1129.412L1205.141 1129.412L1205.141 1033.412L998.459 825.5999999999999C1110.271 812.047 1216.436 755.576 1216.436 621.1769999999999L1216.436 618.9179999999999zM1637.706 1807.059L1468.294 1807.059L1468.294 1863.529C1468.294 1895.153 1443.447 1920 1411.824 1920C1380.2 1920 1355.354 1895.153 1355.354 1863.529L1355.354 1807.059L564.765 1807.059L564.765 1863.529C564.765 1895.153 539.918 1920 508.294 1920C476.671 1920 451.823 1895.153 451.823 1863.529L451.823 1807.059L282.4120000000001 1807.059C188.671 1807.059 112.9999999999996 1731.388 112.9999999999996 1637.647L112.9999999999996 0L1807.118 0L1807.118 1637.647C1807.118 1731.388 1731.447 1807.059 1637.706 1807.059L1637.706 1807.059z" />
    <glyph glyph-name="calendar-month"
      unicode="&#xEA2F;"
      horiz-adv-x="1920" d="M1411.824 1920C1442.995 1920 1468.294 1894.701 1468.294 1863.529L1468.294 1863.529L1468.294 1807.059L1637.706 1807.059C1731.11 1807.059 1807.118 1731.049 1807.118 1637.647L1807.118 1637.647L1807.118 0L113 0L113 1637.647C113 1731.049 189.009 1807.059 282.412 1807.059L282.412 1807.059L451.823 1807.059L451.823 1863.529C451.823 1894.701 477.123 1920 508.294 1920C539.466 1920 564.765 1894.701 564.765 1863.529L564.765 1863.529L564.765 1807.059L1355.354 1807.059L1355.354 1863.529C1355.354 1894.701 1380.653 1920 1411.824 1920zM1581.237 677.646L1242.414 677.646L1242.414 338.8230000000001L1581.237 338.8230000000001L1581.237 677.646zM1129.471 677.646L790.647 677.646L790.647 338.8230000000001L1129.471 338.8230000000001L1129.471 677.646zM677.706 677.646L338.882 677.646L338.882 338.8230000000001L677.706 338.8230000000001L677.706 677.646zM1581.237 1129.412L1242.414 1129.412L1242.414 790.588L1581.237 790.588L1581.237 1129.412zM1129.471 1129.412L790.647 1129.412L790.647 790.588L1129.471 790.588L1129.471 1129.412zM677.706 1129.412L338.882 1129.412L338.882 790.588L677.706 790.588L677.706 1129.412zM451.823 1694.118L282.412 1694.118C251.353 1694.118 225.942 1668.819 225.942 1637.647L225.942 1637.647L225.942 1468.2350000000001L1694.176 1468.2350000000001L1694.176 1637.647C1694.176 1668.819 1668.765 1694.118 1637.706 1694.118L1637.706 1694.118L1468.294 1694.118L1468.294 1637.647C1468.294 1606.475 1442.995 1581.176 1411.824 1581.176C1380.653 1581.176 1355.354 1606.475 1355.354 1637.647L1355.354 1637.647L1355.354 1694.118L564.765 1694.118L564.765 1637.647C564.765 1606.475 539.466 1581.176 508.294 1581.176C477.123 1581.176 451.823 1606.475 451.823 1637.647L451.823 1637.647L451.823 1694.118z" />
    <glyph glyph-name="calendar-reserved"
      unicode="&#xEA30;"
      horiz-adv-x="1920" d="M1694.176 1468.2350000000001L225.942 1468.2350000000001L225.942 1637.647C225.942 1669.271 250.788 1694.118 282.4120000000001 1694.118L451.823 1694.118L451.823 1637.647C451.823 1606.024 476.671 1581.176 508.294 1581.176C539.918 1581.176 564.765 1606.024 564.765 1637.647L564.765 1694.118L1355.354 1694.118L1355.354 1637.647C1355.354 1606.024 1380.2 1581.176 1411.824 1581.176C1443.447 1581.176 1468.294 1606.024 1468.294 1637.647L1468.294 1694.118L1637.706 1694.118C1669.329 1694.118 1694.176 1669.271 1694.176 1637.647L1694.176 1468.2350000000001zM847.118 428.0470000000001L468.765 807.529L547.823 886.588L847.118 588.424L1372.294 1112.471L1451.354 1033.412L847.118 428.0470000000001zM1637.706 1807.059L1468.294 1807.059L1468.294 1863.529C1468.294 1895.153 1443.447 1920 1411.824 1920C1380.2 1920 1355.354 1895.153 1355.354 1863.529L1355.354 1807.059L564.765 1807.059L564.765 1863.529C564.765 1895.153 539.918 1920 508.294 1920C476.671 1920 451.823 1895.153 451.823 1863.529L451.823 1807.059L282.4120000000001 1807.059C188.671 1807.059 112.9999999999996 1731.388 112.9999999999996 1637.647L112.9999999999996 0L1807.118 0L1807.118 1637.647C1807.118 1731.388 1731.447 1807.059 1637.706 1807.059L1637.706 1807.059z" />
    <glyph glyph-name="certified"
      unicode="&#xEA31;"
      horiz-adv-x="1920" d="M960 1905L693.226667 1662.973333L333.44 1676.946667L284.693333 1320.04L0 1099.453333L192 794.81333L115.733333 442.81333L458.666667 332.8399999999999L626.56 14.22667L960 150.4400000000001L1293.44 14.22667L1461.33333 332.8399999999999L1804.26667 442.81333L1728 794.81333L1920 1099.453333L1635.30667 1320.04L1586.56 1676.946667L1226.66667 1662.973333L960 1905zM1312.74667 1288.573333L1460.58667 1134.76L860.586667 557.48L457.813333 960.253333L608.64 1111.08L863.573333 856.25333L1312.74667 1288.573333z" />
    <glyph glyph-name="chat"
      unicode="&#xEA32;"
      horiz-adv-x="1920" d="M1242.35294 1468.246588L1242.35294 451.7760000000001L757.496471 451.7760000000001L338.823529 33.1030599999999L338.823529 451.7760000000001L0 451.7760000000001L0 1468.246588L1242.35294 1468.246588zM1920.03388 1919.9661176471L1920.03388 903.49553L1694.15153 903.49553L1694.15153 484.4837600000001L1355.21506 823.4202399999999L1355.21506 1581.142588L677.680941 1581.142588L677.680941 1919.9661176471L1920.03388 1919.9661176471zM677.76 903.54071L338.823529 903.54071L338.823529 790.59953L677.76 790.59953L677.76 903.54071zM903.529412 1129.423059L338.823529 1129.423059L338.823529 1016.368941L903.529412 1016.368941L903.529412 1129.423059z" />
    <glyph glyph-name="check-dark"
      unicode="&#xEA33;"
      horiz-adv-x="1920" d="M1743.8579 1652.987544L710.746654 619.8762999999999L176.005086 1154.6178690000002L0 978.612783L710.746654 267.7415699999999L1919.98754 1476.857896z" />
    <glyph glyph-name="check-mark-indeterminate"
      unicode="&#xEA34;"
      horiz-adv-x="1920" d="M288 1056L288 864L1632 864L1632 1056z" />
    <glyph glyph-name="check-mark"
      unicode="&#xEA35;"
      horiz-adv-x="1920" d="M1743.8579 1652.987544L710.746654 619.8762999999999L176.005086 1154.6178690000002L0 978.612783L710.746654 267.7415699999999L1919.98754 1476.857896z" />
    <glyph glyph-name="check-plus"
      unicode="&#xEA36;"
      horiz-adv-x="1920" d="M459.896763 1017.15767L459.896763 327.3125299999999L1494.66448 327.3125299999999L1494.66448 902.18348L1724.72783 902.18348L1724.72783 97.3641399999999L229.948381 97.3641399999999L229.948381 1017.15767L459.896763 1017.15767zM1759.26608 1588.073512L1920 1423.545445L1074.9397 597.6858299999999L666.896296 996.531301L827.745188 1160.944393L1074.9397 919.26864L1759.26608 1588.073512zM459.896763 1822L459.896763 1591.936644L689.960118 1591.936644L689.960118 1361.988263L459.896763 1361.988263L459.896763 1132.154856L229.948381 1132.154856L229.948381 1361.988263L1e-13 1361.988263L1e-13 1591.936644L229.948381 1591.936644L229.948381 1822L459.896763 1822zM1379.71328 1592.017126L1379.71328 1362.068745L804.84233 1362.068745L804.84233 1592.017126L1379.71328 1592.017126z" />
    <glyph glyph-name="check"
      unicode="&#xEA37;"
      horiz-adv-x="1920" d="M1743.8579 1652.987544L710.746654 619.8762999999999L176.005086 1154.6178690000002L0 978.612783L710.746654 267.7415699999999L1919.98754 1476.857896z" />
    <glyph glyph-name="circle-arrow-down"
      unicode="&#xEA38;"
      horiz-adv-x="1920" d="M1359.49231 800.20308L1279.59385 880.1015400000001L1016.48821 616.9958999999999L1016.56811 1439.390774L903.431889 1439.390774L903.511787 616.9958999999999L640.406151 880.1015400000001L560.507688 800.20308L960 400.71076L1359.49231 800.20308zM280.86307 280.8630700000001C-93.6210233 655.34716 -93.6210233 1264.652837 280.86307 1639.1369300000001C655.347163 2013.6210233 1264.65284 2013.6210233 1639.13693 1639.1369300000001C2013.62102 1264.652837 2013.62102 655.34716 1639.13693 280.8630700000001C1264.65284 -93.62102 655.347163 -93.62102 280.86307 280.8630700000001z" />
    <glyph glyph-name="circle-arrow-up"
      unicode="&#xEA39;"
      horiz-adv-x="1920" d="M1359.49231 1119.796925L960 1519.289237L560.507688 1119.796925L640.406151 1039.898462L903.511787 1303.004099L903.431889 480.60923L1016.56811 480.60923L1016.48821 1303.004099L1279.59385 1039.898462L1359.49231 1119.796925zM280.86307 1639.1369300000001C655.347163 2013.6210233 1264.65284 2013.6210233 1639.13693 1639.1369300000001C2013.62102 1264.652837 2013.62102 655.34716 1639.13693 280.8630700000001C1264.65284 -93.62102 655.347163 -93.62102 280.86307 280.8630700000001C-93.6210233 655.34716 -93.6210233 1264.652837 280.86307 1639.1369300000001z" />
    <glyph glyph-name="clear-text-formatting"
      unicode="&#xEA3A;"
      horiz-adv-x="1920" d="M1902.45 882.4290000000001C1925.849 859.03 1925.849 820.99 1902.45 797.5900000000001L1302.46 197.5999999999999C1291.179 186.3199999999999 1275.939 179.96 1259.98 179.96L1019.984 179.96L0 179.96L0 299.9580000000001L875.146 299.9580000000001L737.628 437.596C714.229 460.9949999999999 714.229 499.0340000000001 737.628 522.435L1457.617 1242.423C1481.016 1265.8229999999999 1519.055 1265.8229999999999 1542.456 1242.423L1902.45 882.4290000000001zM243.452 559.8140000000001L615.086 1619.997L120.094 1619.997L120.094 1739.995L1200.077 1739.995L1200.077 1619.997L742.164 1619.997L356.61 520.2139999999999z" />
    <glyph glyph-name="clock"
      unicode="&#xEA3B;"
      horiz-adv-x="1920" d="M1377.88235 576L903.529412 931.764706L903.529412 1524.705882L1016.47059 1524.705882L1016.47059 988.235294L1445.64706 666.46588L1377.88235 576zM960 1920C430.644706 1920 0 1489.355294 0 960C0 430.75765 430.644706 0 960 0C1489.24235 0 1920 430.75765 1920 960C1920 1489.355294 1489.24235 1920 960 1920L960 1920z" />
    <glyph glyph-name="closed-captioning-off"
      unicode="&#xEA3C;"
      horiz-adv-x="1920" d="M1264.8398 1463.721059C1295.85311 1269.259274 1465.16897 1120.060145 1668.85093 1120.060145C1671.36552 1120.060145 1673.88011 1120.060145 1676.3947 1120.898342L1676.3947 1120.898342L1676.3947 290.24477C1676.3947 198.04306 1600.95694 122.6053 1508.75523 122.6053L1508.75523 122.6053L167.63947 122.6053C75.4377617 122.6053 0 198.04306 0 290.24477L0 290.24477L0 1296.081589C0 1388.2832979999998 75.4377617 1463.721059 167.63947 1463.721059L167.63947 1463.721059zM754.377617 1136.757036L502.918411 1136.757036C364.6158480000001 1136.757036 251.459206 1023.600394 251.459206 885.29783L251.459206 885.29783L251.459206 717.6583599999999C251.459206 579.3558 364.6158480000001 466.1991499999999 502.918411 466.1991499999999L502.918411 466.1991499999999L754.377617 466.1991499999999L754.377617 633.83863L502.918411 633.83863C456.817557 633.83863 419.098676 671.5575100000001 419.098676 717.6583599999999L419.098676 717.6583599999999L419.098676 885.29783C419.098676 931.398685 456.817557 969.117566 502.918411 969.117566L502.918411 969.117566L754.377617 969.117566L754.377617 1136.757036zM1424.9355 1136.757036L1173.47629 1136.757036C1035.17373 1136.757036 922.017087 1023.600394 922.017087 885.29783L922.017087 885.29783L922.017087 717.6583599999999C922.017087 579.3558 1035.17373 466.1991499999999 1173.47629 466.1991499999999L1173.47629 466.1991499999999L1424.9355 466.1991499999999L1424.9355 633.83863L1173.47629 633.83863C1127.37544 633.83863 1089.65656 671.5575100000001 1089.65656 717.6583599999999L1089.65656 717.6583599999999L1089.65656 885.29783C1089.65656 931.398685 1127.37544 969.117566 1173.47629 969.117566L1173.47629 969.117566L1424.9355 969.117566L1424.9355 1136.757036zM1822.68529 1799L1920 1700.679451L1762.25126 1541.338134L1920 1381.912998L1822.68529 1283.6762680000002L1664.93655 1443.017585L1507.10398 1283.6762680000002L1409.78927 1381.912998L1567.62183 1541.338134L1409.78927 1700.679451L1507.10398 1799L1664.93655 1639.574864L1822.68529 1799z" />
    <glyph glyph-name="closed-captioning-on"
      unicode="&#xEA3D;"
      horiz-adv-x="1920" d="M1220.70108 1441.741738C1250.97967 1255.331632 1411.36786 1112.61265 1606.29131 1120.483477L1606.29131 1120.483477L1606.29131 317.33782C1606.29131 228.9918 1534.0082 156.7086899999999 1445.66218 156.7086899999999L1445.66218 156.7086899999999L160.629131 156.7086899999999C72.2831088 156.7086899999999 0 228.9918 0 317.33782L0 317.33782L0 1281.112608C0 1369.45863 72.2831088 1441.741738 160.629131 1441.741738L160.629131 1441.741738zM1365.34761 1128.490839L1124.40392 1128.490839C991.563624 1128.490839 883.460219 1020.387434 883.460219 887.5471399999999L883.460219 887.5471399999999L883.460219 726.9180100000001C883.460219 594.07772 991.563624 485.97432 1124.40392 485.97432L1124.40392 485.97432L1365.34761 485.97432L1365.34761 646.6034500000001L1124.40392 646.6034500000001C1080.15059 646.6034500000001 1044.08935 682.6646900000001 1044.08935 726.9180100000001L1044.08935 726.9180100000001L1044.08935 887.5471399999999C1044.08935 931.800469 1080.15059 967.861708 1124.40392 967.861708L1124.40392 967.861708L1365.34761 967.861708L1365.34761 1128.490839zM722.831088 1128.490839L481.887392 1128.490839C349.047101 1128.490839 240.943696 1020.387434 240.943696 887.5471399999999L240.943696 887.5471399999999L240.943696 726.9180100000001C240.943696 594.07772 349.047101 485.97432 481.887392 485.97432L481.887392 485.97432L722.831088 485.97432L722.831088 646.6034500000001L481.887392 646.6034500000001C437.634067 646.6034500000001 401.572827 682.6646900000001 401.572827 726.9180100000001L401.572827 726.9180100000001L401.572827 887.5471399999999C401.572827 931.800469 437.634067 967.861708 481.887392 967.861708L481.887392 967.861708L722.831088 967.861708L722.831088 1128.490839zM1825.87133 1763L1920 1668.791015L1539.95148 1288.742491L1293.0645 1535.629465L1387.27349 1629.758136L1539.95148 1477.0801470000001L1825.87133 1763z" />
    <glyph glyph-name="closed-captioning"
      unicode="&#xEA3E;"
      horiz-adv-x="1920" d="M1706.66667 1920L213.333333 1920C94.9333333 1920 0 1812 0 1680L0 240C0 108 94.9333333 0 213.333333 0L1706.66667 0C1824 0 1920 108 1920 240L1920 1680C1920 1812 1824 1920 1706.66667 1920zM853.333333 1066.666667L693.333333 1066.666667L693.333333 1120L480 1120L480 800L693.333333 800L693.333333 853.3333299999999L853.333333 853.3333299999999L853.333333 746.6666700000001C853.333333 688 805.333333 640 746.666667 640L426.666667 640C368 640 320 688 320 746.6666700000001L320 1173.333333C320 1232 368 1280 426.666667 1280L746.666667 1280C805.333333 1280 853.333333 1232 853.333333 1173.333333L853.333333 1066.666667zM1600.33333 1066.666667L1440.33333 1066.666667L1440.33333 1120L1227 1120L1227 800L1440.33333 800L1440.33333 853.3333299999999L1600.33333 853.3333299999999L1600.33333 746.6666700000001C1600.33333 688 1552.33333 640 1493.66667 640L1173.66667 640C1115 640 1067 688 1067 746.6666700000001L1067 1173.333333C1067 1232 1115 1280 1173.66667 1280L1493.66667 1280C1552.33333 1280 1600.33333 1232 1600.33333 1173.333333L1600.33333 1066.666667z" />
    <glyph glyph-name="cloud-download"
      unicode="&#xEA3F;"
      horiz-adv-x="1920" d="M960 1847C1181.81647 1847 1368.84706 1703.338824 1438.08 1504.788235C1448.13176 1505.465882 1458.07059 1508.176471 1468.23529 1508.176471C1717.38353 1508.176471 1920 1305.56 1920 1056.4117649999998C1920 807.26353 1717.38353 604.64706 1468.23529 604.64706L1468.23529 604.64706L1016.47059 604.64706L1016.47059 289.20235L1202.37176 475.2164700000001L1282.33412 395.3670600000001L960 73.0329400000001L637.665882 395.3670600000001L717.628235 475.2164700000001L903.529412 289.20235L903.529412 604.64706L395.2941180000001 604.64706C177.317647 604.64706 0 781.96471 0 999.941176C0 1217.917647 177.317647 1395.235294 395.2941180000001 1395.235294C416.188235 1395.235294 436.517647 1392.5247060000002 456.847059 1389.2494120000001C482.597647 1645.512941 697.072941 1847 960 1847zM1016.47059 999.941176L903.529412 999.941176L903.529412 717.58824L1016.47059 717.58824L1016.47059 999.941176z" />
    <glyph glyph-name="cloud-lock"
      unicode="&#xEA40;"
      horiz-adv-x="1920" d="M1129.418 734.5423000000001L903.538 734.5423000000001L903.538 847.4812999999999C903.538 909.7123 954.248 960.4223 1016.479 960.4223C1078.708 960.4223 1129.418 909.7123 1129.418 847.4812999999999L1129.418 734.5423000000001zM1242.358 734.5423000000001L1242.358 847.4812999999999C1242.358 972.0553 1141.051 1073.3623 1016.479 1073.3623C891.905 1073.3623 790.598 972.0553 790.598 847.4812999999999L790.598 734.5423000000001L677.657 734.5423000000001L677.657 339.2512999999999C677.657 245.8503000000001 753.666 169.8403000000001 847.067 169.8403000000001L1185.888 169.8403000000001C1279.29 169.8403000000001 1355.299 245.8503000000001 1355.299 339.2512999999999L1355.299 734.5423000000001L1242.358 734.5423000000001zM1468.2393 1412.1824C1458.0743 1412.1824 1447.9103 1409.9234000000001 1437.7453 1408.7944C1368.8503 1607.5693999999999 1181.3713 1751.0034 960.0083 1751.0034C696.8573 1751.0034 482.2703 1549.9694 457.4243 1293.5954C437.0943 1296.9834 415.6353 1299.2434 395.3063 1299.2434C150.2263 1299.2434 -43.4667 1075.0564 8.4863 821.0534C46.3213 636.1704 217.9903 508.6614 406.6003 508.6614L564.7173 508.6614L564.7173 791.0124000000001C564.7173 822.1833999999999 590.0153 847.4823999999999 621.1873 847.4823999999999L677.6573 847.4823999999999C677.6573 1033.8334 830.1263 1186.3024 1016.4783 1186.3024C1202.8293 1186.3024 1355.2993 1033.8334 1355.2993 847.4823999999999L1411.7693 847.4823999999999C1442.9393 847.4823999999999 1468.2393 822.1833999999999 1468.2393 791.0124000000001L1468.2393 508.6614C1717.8373 508.6614 1920.0003 710.8244 1920.0003 960.4214C1920.0003 1210.0194000000001 1717.8373 1412.1824 1468.2393 1412.1824" />
    <glyph glyph-name="code"
      unicode="&#xEA41;"
      horiz-adv-x="1920" d="M590.453817 1669L716.417298 1564.030432L213.438121 960.455419L716.417298 356.88041L590.453817 251.91084L0 960.455419L590.453817 1669zM1328.84912 1669L1919.30294 960.455419L1328.84912 251.91084L1202.77629 356.88041L1705.86482 960.455419L1202.77629 1564.030432L1328.84912 1669z" />
    <glyph glyph-name="collapse"
      unicode="&#xEA42;"
      horiz-adv-x="1920" d="M1920 226L1920 113.05882L0 113.05882L0 226L1920 226zM1016.47059 1581.117647L1016.47059 926.849412L1258.84235 1169.334118L1338.80471 1089.484706L960 710.6800000000001L581.195294 1089.484706L661.157647 1169.334118L903.529412 926.849412L903.529412 1581.117647L1016.47059 1581.117647zM1750.58824 1807L169.411765 1807C76.0094118 1807 0 1730.9905880000001 0 1637.588235L0 451.70588L56.4705882 451.70588L112.941176 451.70588L1807.05882 451.70588L1863.52941 451.70588L1920 451.70588L1920 1637.588235C1920 1730.9905880000001 1843.99059 1807 1750.58824 1807L1750.58824 1807z" />
    <glyph glyph-name="collection-save"
      unicode="&#xEA43;"
      horiz-adv-x="1920" d="M1467.55189 219.7475199999999L459.789763 219.7475199999999L162.361496 517.17579L7 361.8142900000001L368.8142900000001 0L1558.52736 0L1920.34165 361.8142900000001L1764.98015 517.17579L1467.55189 219.7475199999999zM965.901262 496.69532L448.725476 1013.871104L604.086972 1169.2326L856.027503 917.29207L856.027503 1920L1075.77502 1920L1075.77502 917.29207L1327.71555 1169.2326L1483.07705 1013.871104L965.901262 496.69532z" />
    <glyph glyph-name="collection"
      unicode="&#xEA44;"
      horiz-adv-x="1920" d="M1242.35294 1242.352941L1242.35294 0L0 0L0 1242.352941L1242.35294 1242.352941zM903.529412 451.7647099999999L338.823529 451.7647099999999L338.823529 338.8235299999999L903.529412 338.8235299999999L903.529412 451.7647099999999zM1581.17647 1581.176471L1581.17647 338.8235299999999L1355.29412 338.8235299999999L1355.29412 1355.294118L338.823529 1355.294118L338.823529 1581.176471L1581.17647 1581.176471zM790.701176 677.64706L338.823529 677.64706L338.823529 564.70588L790.701176 564.70588L790.701176 677.64706zM1920.03388 1920.0112941176L1920.03388 677.6583499999999L1694.15153 677.6583499999999L1694.15153 1694.128941L677.680941 1694.128941L677.680941 1920.0112941176L1920.03388 1920.0112941176zM903.529412 903.52941L338.823529 903.52941L338.823529 790.58824L903.529412 790.58824L903.529412 903.52941z" />
    <glyph glyph-name="comment"
      unicode="&#xEA45;"
      horiz-adv-x="1920" d="M1662.17776 1920L1662.17776 560.03638L1013.47511 560.03638L453.321206 -0.11752L453.321206 560.03638L0 560.03638L0 1920L1662.17776 1920zM906.79352 1164.449546L453.321206 1164.449546L453.321206 1046.920973L906.79352 1046.920973L906.79352 1164.449546zM1208.85655 1466.81479L453.321206 1466.81479L453.321206 1349.286218L1208.85655 1349.286218L1208.85655 1466.81479z" />
    <glyph glyph-name="comments-off"
      unicode="&#xEA46;"
      horiz-adv-x="1920" d="M971.153351 1503.662413C1012.92433 1252.8161420000001 1228.43455 1061.408762 1488.69314 1061.408762L1488.69314 1061.408762L1488.69314 353.8029200000001L729.809921 353.8029200000001L262.710555 0L262.710555 353.8029200000001L1.6e-12 353.8029200000001L2e-13 1503.662413zM1689.50909 1920L1813.33333 1794.930668L1612.5349 1592.113143L1813.33333 1389.295619L1689.50909 1264.226286L1488.71066 1467.043811L1287.91222 1264.226286L1164.08798 1389.295619L1364.88642 1592.113143L1164.08798 1794.930668L1287.91222 1920L1488.71066 1717.182476L1689.50909 1920z" />
    <glyph glyph-name="comments-on"
      unicode="&#xEA47;"
      horiz-adv-x="1920" d="M981.138824 1504C1023.33929 1253.008941 1241.06541 1061.647059 1504 1061.647059L1504 1061.647059L1504 353.8823500000001L737.313882 353.8823500000001L265.411765 0L265.411765 353.8823500000001L0 353.8823500000001L0 1504zM1794.88188 1920L1920 1794.902401L1415.01477 1290L1087 1617.960961L1212.11812 1743.058559L1415.01477 1540.195197L1794.88188 1920z" />
    <glyph glyph-name="commons"
      unicode="&#xEA48;"
      horiz-adv-x="1920" d="M1063.68 1669L1063.68 1386.67L714.24 1386.67C476.16 1386.67 282.24 1194.6100000000001 282.24 960.295C282.24 725.98 474.24 533.9200000000001 712.32 533.9200000000001L712.32 533.9200000000001L1061.76 533.9200000000001L1061.76 251.5899999999999L712.32 251.5899999999999C320.64 251.5899999999999 0 568.4949999999999 0 960.295C0 1352.09875 320.64 1669 712.32 1669L712.32 1669L1063.68 1669zM1345.92 1467.3325L1920 960.295L1920 960.2875L1345.92 453.2574999999999L1345.92 791.2825L741.12 791.2825C647.04 791.2825 572.16 866.185 572.16 960.295C572.16 1054.405 647.04 1129.3075 741.12 1129.3075L741.12 1129.3075L1345.92 1129.3075L1345.92 1467.3325z" />
    <glyph glyph-name="complete"
      unicode="&#xEA49;"
      horiz-adv-x="1920" d="M854.343529 602.31529L503.209412 953.449412L583.058824 1033.298824L854.343529 762.01412L1374.55059 1282.334118L1454.4 1202.3717649999999L854.343529 602.31529zM960.056471 1920C430.701176 1920 0.0564705882 1489.355294 0.0564705882 960C0.0564705882 430.6447100000001 430.701176 0 960.056471 0C1489.29882 0 1920.05647 430.6447100000001 1920.05647 960C1920.05647 1489.355294 1489.29882 1920 960.056471 1920L960.056471 1920z" />
    <glyph glyph-name="compose"
      unicode="&#xEA4A;"
      horiz-adv-x="1920" d="M1108.6752 1680.9984L271.0752 842.6304C257.6352 829.1904 248.5152 812.1024 244.7712 793.5744L244.7712 793.5744L144.9312 294.3743999999999C138.6912 262.8864000000001 148.4832 230.3424 171.1392 207.5904000000001C189.3792 189.4464000000001 213.8592 179.4623999999999 239.1072 179.4623999999999C245.3472 179.4623999999999 251.5872 180.1343999999999 257.9232 181.3824L257.9232 181.3824L757.1232 281.2224000000001C775.6512 284.9664 792.7392 294.0863999999999 806.1792 307.4304L806.1792 307.4304L1631.9712 1132.6464L1631.9712 48.9984L-0.0288 48.9984L-0.0288 1680.9984L1108.6752 1680.9984zM1442.8992 1879.6704C1497.5232 1933.4304 1592.6592 1933.4304 1646.4192 1879.6704L1646.4192 1879.6704L1843.2192 1682.8704C1870.0992 1655.9904000000001 1885.3632 1619.5104000000001 1885.3632 1581.1104C1885.3632 1542.7104 1870.0992 1506.2304 1843.2192 1479.3504L1843.2192 1479.3504L1643.5392 1280.6304L738.1632 375.3504000000001L239.0592 275.5103999999999L338.8992 774.7103999999999L1244.1792 1679.9904zM465.5232 766.0704000000001L427.2192 727.6704L360.9792 397.4304L691.2192 463.6704L729.5232 502.0704000000001L465.5232 766.0704000000001zM1305.5232 1410.2304L712.3392 816.9504L780.4992 748.7904000000001L1373.7792 1342.0704L1305.5232 1410.2304zM1544.6592 1825.9104C1532.1792 1825.9104 1519.6992 1820.1504 1511.0592 1811.5104L1511.0592 1811.5104L1379.5392 1679.9904L1643.5392 1415.9904000000001L1775.0592 1547.5104000000001C1783.6992 1556.1504 1789.3632 1568.6304 1789.3632 1581.1104C1789.3632 1594.5504 1783.6992 1606.0704 1775.0592 1615.6704L1775.0592 1615.6704L1579.2192 1811.5104C1569.5232 1820.1504 1558.0992 1825.9104 1544.6592 1825.9104z" />
    <glyph glyph-name="copy-course"
      unicode="&#xEA4B;"
      horiz-adv-x="1920" d="M1468.18348 1468.239944L1468.18348 0.05647L1e-13 0.05647L1e-13 1468.239944L1468.18348 1468.239944zM1920 1920L1920 451.7035900000001L1581.18843 451.7035900000001L1581.18843 1581.188429L451.703587 1581.188429L451.703587 1920L1920 1920zM338.811571 903.55399L1129.3719 903.55399L1129.3719 1016.491183L338.811571 1016.491183L338.811571 903.55399zM338.811571 677.6796099999999L903.497524 677.6796099999999L903.497524 790.6168L338.811571 790.6168L338.811571 677.6796099999999zM338.811571 451.69229L1129.3719 451.69229L1129.3719 564.74242L338.811571 564.74242L338.811571 451.69229z" />
    <glyph glyph-name="copy"
      unicode="&#xEA4C;"
      horiz-adv-x="1920" d="M1468.18348 1468.239944L1468.18348 0.05647L1e-13 0.05647L1e-13 1468.239944L1468.18348 1468.239944zM1920 1920L1920 451.7035900000001L1581.18843 451.7035900000001L1581.18843 1581.188429L451.703587 1581.188429L451.703587 1920L1920 1920zM338.811571 903.55399L1129.3719 903.55399L1129.3719 1016.491183L338.811571 1016.491183L338.811571 903.55399zM338.811571 677.6796099999999L903.497524 677.6796099999999L903.497524 790.6168L338.811571 790.6168L338.811571 677.6796099999999zM338.811571 451.69229L1129.3719 451.69229L1129.3719 564.74242L338.811571 564.74242L338.811571 451.69229z" />
    <glyph glyph-name="courses"
      unicode="&#xEA4D;"
      horiz-adv-x="1920" d="M1750.17647 1920L1750.17647 451.7647099999999L1524.29412 451.7647099999999L1524.29412 112.94118L1693.70588 112.94118L1693.70588 0L451.352941 0C368.905882 0 289.847059 36.1411800000001 235.635294 99.38824C192.717647 150.2117599999999 169 215.7176500000001 169 282.35294L169 282.35294L169 1637.647059C169 1793.505882 295.494118 1920 451.352941 1920L451.352941 1920L1750.17647 1920zM1411.35294 451.7647099999999L463.776471 451.7647099999999C374.552941 451.7647099999999 297.752941 390.77647 284.2 311.7176500000001C283.070588 302.6823500000001 281.941176 293.64706 281.941176 285.74118L281.941176 285.74118L281.941176 282.35294C281.941176 241.6941200000001 295.494118 203.29412 322.6 172.8C354.223529 134.4000000000001 401.658824 112.94118 451.352941 112.94118L451.352941 112.94118L1411.35294 112.94118L1411.35294 225.8823500000001L408.435294 225.8823500000001L408.435294 338.8235299999999L1411.35294 338.8235299999999L1411.35294 451.7647099999999zM1354.88235 1016.470588L564.294118 1016.470588L564.294118 903.52941L1354.88235 903.52941L1354.88235 1016.470588zM1411.35294 1581.176471L507.823529 1581.176471L507.823529 1129.4117649999998L1411.35294 1129.4117649999998L1411.35294 1581.176471zM620.764706 1242.352941L1298.41176 1242.352941L1298.41176 1468.235294L620.764706 1468.235294L620.764706 1242.352941z" />
    <glyph glyph-name="dashboard"
      unicode="&#xEA4E;"
      horiz-adv-x="1920" d="M960 1638C1489.35529 1638 1920 1207.242353 1920 678C1920 600.8611800000001 1911.07765 524.85176 1893.45882 452.1176499999999L1882.95529 408.9741200000001L1322.76706 408.9741200000001C1295.66118 334.09412 1242.91765 268.1364699999999 1167.24706 227.92941C1119.36 202.74353 1065.6 189.3035299999999 1011.61412 189.3035299999999C888.169412 189.3035299999999 775.567059 256.9552900000001 717.854118 365.94353C711.981176 377.1247100000001 705.995294 391.6941200000001 700.009412 408.9741200000001L37.0447059 408.9741200000001L26.5411765 452.1176499999999C8.92235294 524.85176 0 600.8611800000001 0 678C0 1207.242353 430.644706 1638 960 1638zM1128.16941 408.9741200000001C1175.83059 458.3294100000001 1189.38353 534.11294 1155.50118 598.03765C1113.26118 677.5482400000001 751.736471 1011.628235 751.736471 1011.628235C751.736471 1011.628235 825.374118 524.85176 867.501176 445.3411799999999C874.842353 431.44941 884.442353 419.81647 894.72 408.9741200000001L893.816471 408.9741200000001C895.849412 406.8282400000001 898.334118 405.3599999999999 900.367059 403.4400000000001C904.997647 399.0352900000001 909.741176 394.96941 914.710588 391.24235C918.437647 388.4188200000001 922.390588 385.9341199999999 926.230588 383.5623499999999C931.425882 380.4000000000001 936.621176 377.46353 942.155294 374.7529400000001C946.447059 372.83294 950.738824 371.0258799999999 955.256471 369.3317600000001C960.677647 367.41176 966.211765 365.6047100000001 971.971765 364.2494099999999C976.715294 363.0070599999999 981.458824 361.9905900000001 986.202353 361.2000000000001C991.962353 360.29647 997.609412 359.7317599999999 1003.36941 359.50588C1006.19294 359.39294 1008.90353 358.7152900000001 1011.61412 358.7152900000001C1013.53412 358.7152900000001 1015.45412 359.39294 1017.37412 359.39294C1025.61882 359.6188199999999 1033.75059 360.7482399999999 1041.88235 362.3294100000001C1045.60941 363.1199999999999 1049.44941 363.4588200000001 1053.17647 364.4752900000001C1064.92235 367.6376499999999 1076.44235 371.70353 1087.51059 377.68941L1087.84941 377.68941L1087.84941 377.80235C1103.54824 386.0470600000001 1116.53647 397.00235 1128.16941 408.9741200000001zM1489.69412 1034.781176L1602.40941 1147.496471L1482.69176 1267.327059L1369.86353 1154.611765L1489.69412 1034.781176zM875.294118 1289.237647L1044.70588 1289.237647L1044.70588 1448.710588L875.294118 1448.710588L875.294118 1289.237647zM430.305882 1034.781176L550.136471 1154.611765L437.421176 1267.327059L317.5905880000001 1147.496471L430.305882 1034.781176z" />
    <glyph glyph-name="deactivate-user"
      unicode="&#xEA4F;"
      horiz-adv-x="1920" d="M696.208213 1763.973947C902.928497 1763.973947 1071.08956 1595.812886 1071.08956 1389.0926020000002L1071.08956 1389.0926020000002L1071.08956 1281.9836460000001C1071.08956 1168.5552619999999 1019.35593 1067.9799520000001 939.452651 999.108894C997.505705 992.146812 1055.34454 983.363877 1112.64783 971.367674C1274.70368 937.199917 1392.41643 782.6416899999999 1392.41643 603.76974L1392.41643 603.76974L1392.41643 398.01343L1370.5662 381.9470899999999C1253.17478 295.7243800000001 1013.78627 156.1614099999999 695.45845 156.1614099999999C678.535235 156.1614099999999 661.504911 156.5898500000001 644.260369 157.33961C363.742014 170.5140100000001 150.916519 286.72723 21.743118 382.0542000000001L21.743118 382.0542000000001L0 398.1205399999999L0 603.8768500000001C0 782.7488000000001 117.819851 937.307026 279.98281 971.474783C336.964775 983.363877 394.589393 992.575247 452.428229 999.644439C372.739166 1068.4083879999998 321.326867 1168.76948 321.326867 1281.9836460000001L321.326867 1281.9836460000001L321.326867 1389.0926020000002C321.326867 1595.812886 489.487928 1763.973947 696.208213 1763.973947zM607.307779 1442.64708C512.409244 1442.64708 493.772286 1372.704931 428.4358230000001 1346.2490189999999L428.4358230000001 1346.2490189999999L428.4358230000001 1281.9836460000001C428.4358230000001 1134.3875050000001 548.612071 1014.211256 696.208213 1014.211256C843.804354 1014.211256 963.980602 1134.3875050000001 963.980602 1281.9836460000001L963.980602 1281.9836460000001L963.980602 1389.0926020000002C963.980602 1391.556108 963.337948 1393.912505 963.230839 1396.4831199999999C931.419479 1367.563702 902.714279 1335.5381240000002 839.734213 1335.5381240000002C722.985451 1335.5381240000002 722.985451 1442.64708 607.307779 1442.64708zM1839.91504 1764L1920 1683.915044L1719.73097 1483.646018L1920 1283.376991L1839.91504 1203.292035L1639.64602 1403.561062L1439.49027 1203.292035L1359.29204 1283.376991L1559.56106 1483.646018L1359.29204 1683.915044L1439.49027 1764L1639.64602 1563.730973L1839.91504 1764z" />
    <glyph glyph-name="discussion-check"
      unicode="&#xEA50;"
      horiz-adv-x="1920" d="M1743.8579 1652.987544L710.746654 619.8762999999999L176.005086 1154.6178690000002L0 978.612783L710.746654 267.7415699999999L1919.98754 1476.857896z" />
    <glyph glyph-name="discussion-new"
      unicode="&#xEA51;"
      horiz-adv-x="1920" d="M866.331875 1707L866.331875 1053.6681250000001L213 1053.6681250000001L213 867.00187L866.331875 867.00187L866.331875 213.6700000000001L1052.99813 213.6700000000001L1052.99813 867.00187L1706.33 867.00187L1706.33 1053.6681250000001L1052.99813 1053.6681250000001L1052.99813 1707z" />
    <glyph glyph-name="discussion-reply-2"
      unicode="&#xEA52;"
      horiz-adv-x="1920" d="M874.738114 1274.874295L462.691378 1274.874295L810.918614 1623.101531L640.008058 1794L0 1154.004029L640.008058 513.9959699999999L810.918614 684.90653L462.691378 1033.133763L874.738114 1033.133763C1317.72764 1033.133763 1678.16277 672.6986300000001 1678.16277 229.70911L1678.16277 126.6067700000001L1919.9033 126.6067700000001L1919.9033 229.70911C1919.9033 806.01853 1451.16841 1274.874295 874.738114 1274.874295" />
    <glyph glyph-name="discussion-reply-dark"
      unicode="&#xEA53;"
      horiz-adv-x="1920" d="M960 451.7647099999999C1053.44753 451.7647099999999 1129.41176 375.8004699999999 1129.41176 282.35294C1129.41176 188.9054100000001 1053.44753 112.94118 960 112.94118C866.552471 112.94118 790.588235 188.9054100000001 790.588235 282.35294C790.588235 375.8004699999999 866.552471 451.7647099999999 960 451.7647099999999zM960 1129.4117649999998C1053.44753 1129.4117649999998 1129.41176 1053.447529 1129.41176 960C1129.41176 866.5524700000001 1053.44753 790.58824 960 790.58824C866.552471 790.58824 790.588235 866.5524700000001 790.588235 960C790.588235 1053.447529 866.552471 1129.4117649999998 960 1129.4117649999998zM960 1807.058824C1053.44753 1807.058824 1129.41176 1731.094588 1129.41176 1637.647059C1129.41176 1544.199529 1053.44753 1468.235294 960 1468.235294C866.552471 1468.235294 790.588235 1544.199529 790.588235 1637.647059C790.588235 1731.094588 866.552471 1807.058824 960 1807.058824z" />
    <glyph glyph-name="discussion-reply"
      unicode="&#xEA54;"
      horiz-adv-x="1920" d="M960 451.7647099999999C1053.44753 451.7647099999999 1129.41176 375.8004699999999 1129.41176 282.35294C1129.41176 188.9054100000001 1053.44753 112.94118 960 112.94118C866.552471 112.94118 790.588235 188.9054100000001 790.588235 282.35294C790.588235 375.8004699999999 866.552471 451.7647099999999 960 451.7647099999999zM960 1129.4117649999998C1053.44753 1129.4117649999998 1129.41176 1053.447529 1129.41176 960C1129.41176 866.5524700000001 1053.44753 790.58824 960 790.58824C866.552471 790.58824 790.588235 866.5524700000001 790.588235 960C790.588235 1053.447529 866.552471 1129.4117649999998 960 1129.4117649999998zM960 1807.058824C1053.44753 1807.058824 1129.41176 1731.094588 1129.41176 1637.647059C1129.41176 1544.199529 1053.44753 1468.235294 960 1468.235294C866.552471 1468.235294 790.588235 1544.199529 790.588235 1637.647059C790.588235 1731.094588 866.552471 1807.058824 960 1807.058824z" />
    <glyph glyph-name="discussion-search"
      unicode="&#xEA55;"
      horiz-adv-x="1920" d="M1458.94844 614.3739800000001C1563.58502 751.32321 1626.47541 921.560965 1626.47541 1106.762297C1626.47541 1555.235782 1261.71119 1920 813.237703 1920C364.7642180000001 1920 0 1555.235782 0 1106.762297C0 658.28881 364.7642180000001 293.52459 813.237703 293.52459C998.439035 293.52459 1168.78523 356.41498 1305.73446 461.0515600000001L1766.67759 0L1920 153.32241L1458.94844 614.3739800000001zM813.237703 510.38798C484.364376 510.38798 216.863387 777.9974 216.863387 1106.762297C216.863387 1435.527193 484.364376 1703.1366130000001 813.237703 1703.1366130000001C1142.11103 1703.1366130000001 1409.61202 1435.527193 1409.61202 1106.762297C1409.61202 777.9974 1142.11103 510.38798 813.237703 510.38798L813.237703 510.38798z" />
    <glyph glyph-name="discussion-x"
      unicode="&#xEA56;"
      horiz-adv-x="1920" d="M1743.8579 1919.9875438722L959.869211 1136.123419L176.005086 1919.9875438722L0 1743.857896L783.739563 959.869211L0 176.1296500000001L176.005086 0L959.869211 783.73956L1743.8579 0L1919.98754 176.1296500000001L1136.12342 959.869211L1919.98754 1743.857896z" />
    <glyph glyph-name="discussion"
      unicode="&#xEA57;"
      horiz-adv-x="1920" d="M1242.35294 1468.246588L1242.35294 451.7760000000001L757.496471 451.7760000000001L338.823529 33.1030599999999L338.823529 451.7760000000001L0 451.7760000000001L0 1468.246588L1242.35294 1468.246588zM1920.03388 1919.9661176471L1920.03388 903.49553L1694.15153 903.49553L1694.15153 484.4837600000001L1355.21506 823.4202399999999L1355.21506 1581.142588L677.680941 1581.142588L677.680941 1919.9661176471L1920.03388 1919.9661176471zM677.76 903.54071L338.823529 903.54071L338.823529 790.59953L677.76 790.59953L677.76 903.54071zM903.529412 1129.423059L338.823529 1129.423059L338.823529 1016.368941L903.529412 1016.368941L903.529412 1129.423059z" />
    <glyph glyph-name="document"
      unicode="&#xEA58;"
      horiz-adv-x="1920" d="M1185.471 1920L1185.471 1355.2939999999999L1750.176 1355.2939999999999L1750.176 0L169 0L169 1920L1185.471 1920zM959.701 564.7059999999999L507.823 564.7059999999999L507.823 451.652L959.701 451.652L959.701 564.7059999999999zM1298.412 790.587L507.823 790.587L507.823 677.6469999999999L1298.412 677.6469999999999L1298.412 790.587zM1185.471 1016.471L507.823 1016.471L507.823 903.53L1185.471 903.53L1185.471 1016.471zM1411.353 1242.353L507.823 1242.353L507.823 1129.412L1411.353 1129.412L1411.353 1242.353zM959.701 1468.122L507.823 1468.122L507.823 1355.181L959.701 1355.181L959.701 1468.122zM1667.6729 1574.377C1698.0539 1544.109 1719.5129 1507.742 1733.2919 1468.213L1298.3549 1468.213L1298.3549 1903.149C1337.8849 1889.37 1374.2519 1867.799 1404.6329 1837.53L1667.6729 1574.377z" />
    <glyph glyph-name="download"
      unicode="&#xEA59;"
      horiz-adv-x="1920" d="M1764.09785 564.5884900000001L1920 408.68634L1556.92661 45.6129599999999L363.073389 45.6129599999999L0 408.68634L155.902148 564.5884900000001L454.365453 266.12519L1465.63455 266.12519L1764.09785 564.5884900000001zM1070.3333 1920L1070.3333 970.033307L1320.83519 1220.645458L1476.73734 1064.7433099999998L957.761801 545.7677699999999L438.786264 1064.7433099999998L594.688412 1220.645458L849.710807 965.623062L849.710807 1920L1070.3333 1920z" />
    <glyph glyph-name="drag-handle"
      unicode="&#xEA5A;"
      horiz-adv-x="1920" d="M600 480C732.36 480 840 372.3599999999999 840 240C840 107.6400000000001 732.36 0 600 0C467.64 0 360 107.6400000000001 360 240C360 372.3599999999999 467.64 480 600 480zM1320 480C1452.36 480 1560 372.3599999999999 1560 240C1560 107.6400000000001 1452.36 0 1320 0C1187.64 0 1080 107.6400000000001 1080 240C1080 372.3599999999999 1187.64 480 1320 480zM600 1200C732.36 1200 840 1092.3600000000001 840 960C840 827.6400000000001 732.36 720 600 720C467.64 720 360 827.6400000000001 360 960C360 1092.3600000000001 467.64 1200 600 1200zM1320 1200C1452.36 1200 1560 1092.3600000000001 1560 960C1560 827.6400000000001 1452.36 720 1320 720C1187.64 720 1080 827.6400000000001 1080 960C1080 1092.3600000000001 1187.64 1200 1320 1200zM600 1920C732.36 1920 840 1812.36 840 1680C840 1547.6399999999999 732.36 1440 600 1440C467.64 1440 360 1547.6399999999999 360 1680C360 1812.36 467.64 1920 600 1920zM1320 1920C1452.36 1920 1560 1812.36 1560 1680C1560 1547.6399999999999 1452.36 1440 1320 1440C1187.64 1440 1080 1547.6399999999999 1080 1680C1080 1812.36 1187.64 1920 1320 1920z" />
    <glyph glyph-name="drop-down"
      unicode="&#xEA5B;"
      horiz-adv-x="1920" d="M960 428.3858800000001L524.724706 863.6611800000001L604.687059 943.510588L903.529412 644.55529L903.529412 1468.235294L1016.47059 1468.235294L1016.47059 644.55529L1315.31294 943.510588L1395.27529 863.6611800000001L960 428.3858800000001zM960 1920C430.644706 1920 0 1489.355294 0 960C0 430.6447100000001 430.644706 0 960 0C1489.35529 0 1920 430.6447100000001 1920 960C1920 1489.355294 1489.35529 1920 960 1920L960 1920z" />
    <glyph glyph-name="duplicate"
      unicode="&#xEA5C;"
      horiz-adv-x="1920" d="M1468.18348 1468.239944L1468.18348 0.05647L1e-13 0.05647L1e-13 1468.239944L1468.18348 1468.239944zM777.202768 1120L665.202768 1120L665.202 801.9590000000001L333 801.95884L333 689.95884L665.202 689.9590000000001L665.202768 340L777.202768 340L777.202 689.9590000000001L1113 689.95884L1113 801.95884L777.202 801.9590000000001L777.202768 1120zM1920 1920L1920 451.7035900000001L1581.18843 451.7035900000001L1581.18843 1581.188429L451.703587 1581.188429L451.703587 1920L1920 1920z" />
    <glyph glyph-name="edit"
      unicode="&#xEA5D;"
      horiz-adv-x="1920" d="M1392.69971 219.6676399999999L1347.91837 264.4489799999999L1655.79009 572.3207L1700.57143 527.53936L1777.81924 142.4198300000001L1392.69971 219.6676399999999zM1288.58309 552.1691000000001L596.71137 1244.040816L676.198251 1323.527697L1368.06997 631.65598L1288.58309 552.1691000000001zM282.122449 1330.244898L128.746356 1483.620991C118.670554 1493.696793 111.953353 1508.2507289999999 111.953353 1522.804665C111.953353 1538.478134 118.670554 1551.912536 128.746356 1563.107872L357.131195 1791.492711C368.326531 1801.568513 381.760933 1808.285714 397.434402 1808.285714C411.988338 1808.285714 426.542274 1801.568513 436.618076 1791.492711L589.994169 1638.116618L282.122449 1330.244898zM1803.56851 582.3965000000001L747.848397 1638.116618L516.104956 1870.9795918C452.291545 1933.6734694 341.457726 1933.6734694 278.763848 1870.9795918L49.2594752 1641.475219C17.9125364 1610.12828 0 1567.586006 0 1522.804665C0 1478.023324 17.9125364 1435.4810499999999 49.2594752 1404.1341109999998L282.122449 1172.390671L1337.84257 116.6705500000001L1920 0.2390700000001L1803.56851 582.3965000000001z" />
    </font>
</defs>
</svg>
